Loading...
Error

Тихий приют / Silent Retreat (Эйс Джордан) [2016 г., ужасы, триллер, детектив, HDRip] VO

Статистика раздачи
Размер:  1,45 GB   |    Зарегистрирован:  3 месяца 15 дней   |    Скачан:  8 раз

Полного источника не было: 1 месяц 4 дня

Сидов:  0  |  0 KB/s  ]   Личеров:  0  |  0 KB/s  ]

* - сиды/пиры с внешних источников

   
 
Автор Сообщение

makkol Пол:Муж

23-Авг-2016 11:46

Тихий приют / Silent Retreat
«Лжецы должны быть наказаны»


Год выпуска: 2016
Жанр: ужасы, триллер, детектив
Производство: США [Starko Entertainment, Tucker Family Productions, Jordanfilm Empirical Pictures]
Режиссер: Эйс Джордан
В ролях: Донни Боас, Ребекка Питкин, Дэн Ди Хулио, Эли Билднер, Девон Огден, Эйдан Флинн, Триста Робинсон, Мелани Авалон, Лэндон Эшворт, Джон Керри
Сюжет фильма:
Шесть сотрудников медиа-компании идут на отдых в изолированный домик в лесу. Когда один из членов пропадает без вести, они обнаруживают, что домик ранее был частной психбольницей, которая была закрыта после обвинений в неправомерных действиях. Один за другим, они становятся жертвами темных тайн, похороненных в домике.

  • Мировая премьера: 12 января 2016


Качество видео: HDRip

Продолжительность: 01:31:26
Формат: AVI
Видео: XviD, 720x384 (1.85:1), 23.976 fps, 2067 kbps
Аудио: русский, любительский одноголосый закадровый (Хихикающий доктор), MP3 2.0, 44.1 kHz, 192 kbps
Субтитры: английские внешние, SRT

Код:

Format                      : AVI
Format/Info                 : Audio Video Interleave
Format profile              : OpenDML
File size                   : 1.45 GiB
Duration                    : 1 h 31 min
Overall bit rate            : 2 273 kb/s
Writing application         : XviD4PSP 6.0 / 54.29.105

Video
ID                          : 0
Format                      : xvid
Codec ID                    : xvid
Duration                    : 1 h 31 min
Bit rate                    : 2 067 kb/s
Width                       : 720 pixels
Height                      : 384 pixels
Display aspect ratio        : 1.85:1
Frame rate                  : 23.976 FPS
Scan type                   : Progressive
Bits/(Pixel*Frame)          : 0.312
Stream size                 : 1.32 GiB (91%)

Audio
ID                          : 1
Format                      : MPEG Audio
Format version              : Version 1
Format profile              : Layer 3
Codec ID                    : 55
Codec ID/Hint               : MP3
Duration                    : 1 h 31 min
Bit rate mode               : Constant
Bit rate                    : 192 kb/s
Channel(s)                  : 2 channels
Sampling rate               : 44.1 kHz
Compression mode            : Lossy
Stream size                 : 126 MiB (8%)
Alignment                   : Aligned on interleaves
Interleave, duration        : 26  ms (0.63 video frame)
Присутствует реклама


picpicpicpicpic
Для увеличения картинки щелкните мышкой по превью

Этот торрент недоступен для скачивания без регистрации, однако доступен по публичной magnet-ссылке (источники с публичных трекеров). Перед использованием ссылки прочтите, пожалуйста Пользовательское соглашение, а также как можно дольше оставайтесь на раздаче! Для того, чтобы скачать сам торрент-файл (который видит больше источников), а также для того, чтобы поблагодарить релизера, вам необходимо зарегистрироваться. Если регистрироваться лень - вы можете также попробовать скачать релиз по нашим партнерским ссылкам ниже.

[underverse.su].t69354.torrent
Трекер: Зарегистрирован   [ 23.08.2016 11:46 ]  

Статус: проверено (by makkol at 31.08.2016 22:42)
Поблагодарили: пока никто не поблагодарил...
Тип торрента: публичный - доступные источники с открытых трекеров: 
Размер: 1,45 GB (занимает 1/3 DVDR, для записи нужно 1 болванка DVDR/RW)
 
 

Яндекс.Метрика powered by Sphinx


В Н И М А Н И Е
Сайт не распространяет и не хранит электронные версии произведений, а лишь бесплатно и без коммерческой выгоды (не требуя взамен платы,
SMS и т.д.) предоставляет доступ к создаваемому пользователями каталогу ссылок на торрент-файлы, которые содержат только списки хеш-сумм.
Убедительная просьба с жалобами обращаться напрямую к пользователю, разместившему торрент файл.

Вверх