Loading...
Error

Как Китай обманул мир / How China Fooled the World - with Robert Peston [2014 г., документальный, мировая экономика, HDTVRip 720р] Original (Eng) + Sub (Rus, Eng)

Статистика раздачи
Размер:  1,29 GB   |    Зарегистрирован:  3 месяца 17 дней   |    Скачан:  13 раз

Полного источника не было: 13 часов

Сидов:  0  |  0 KB/s  ]   Личеров:  0  |  0 KB/s  ]

* - сиды/пиры с внешних источников

   
 
Автор Сообщение

ARI71 Пол:Муж

22-Авг-2016 17:39

Как Китай обманул мир / How China Fooled the World - with Robert Peston


Год выпуска: 2014
Жанр: документальный, мировая экономика
Страна: Великобритания BBC
В ролях: Роберт Пестон
Сюжет фильма:
Роберт Пестон едет в Китай, чтобы понять, каким образом этот могучий экономический гигант в действительности может быть в серьезной неприятности. Китай сейчас - вторая по величине экономика в мире, и за последние 30 лет экономика Китая росла с поразительной скоростью. Это история расходов и инвестиций в масштабах, прежде не виданных в истории человечества.
Качество видео: HDTVRip 720р

Продолжительность: 00:58:28
Формат: MKV
Видео: AVC (x264), 1280х720, 3000 kbps
Аудио: английский, (оригинал), AAC 2 ch, 160.00 kbps
Субтитры #1: русские, (вшитые, отключаемые) (srt)
Субтитры #2: английские, (вшитые, отключаемые) (srt)

Код:

Общее
Уникальный идентификатор : 215804193826750553226695591933435973086 (0xA25A603B1523D60C8B36EC59C0FC0DDE)
Полное имя : D:\BBC.This.World.2014.How.China.Fooled.The.World.720p.HDTV.x264.AAC.mkv
Формат : Matroska
Версия формата : Version 4 / Version 2
Размер файла : 1,29 Гбайт
Продолжительность : 58 м.
Общий поток : 3159 Кбит/сек
Дата кодирования : UTC 2016-08-14 18:23:51
Программа кодирования : mkvmerge v8.8.0 ('Wind at my back') 64bit
Библиотека кодирования : libebml v1.3.3 + libmatroska v1.4.4

Видео
Идентификатор : 1
Формат : AVC
Формат/Информация : Advanced Video Codec
Профиль формата : High@L4.1
Параметр CABAC формата : Да
Параметр ReFrames формата : 4 кадра
Идентификатор кодека : V_MPEG4/ISO/AVC
Продолжительность : 58 м.
Битрейт : 3000 Кбит/сек
Ширина : 1280 пикселей
Высота : 720 пикселей
Соотношение сторон : 16:9
Режим частоты кадров : Постоянный
Частота кадров : 25,000 кадров/сек
Цветовое пространство : YUV
Субдискретизация насыщенности : 4:2:0
Битовая глубина : 8 бит
Тип развёртки : Прогрессивная
Бит/(Пиксели*Кадры) : 0.130
Размер потока : 1,22 Гбайт (95%)
Библиотека кодирования : x264 core 130 r2273 b3065e6
Настройки программы : cabac=1 / ref=1 / deblock=1:0:0 / analyse=0x3:0x113 / me=hex / subme=2 / psy=1 / psy_rd=1.00:0.00 / mixed_ref=0 / me_range=16 / chroma_me=1 / trellis=0 / 8x8dct=1 / cqm=0 / deadzone=21,11 / fast_pskip=1 / chroma_qp_offset=0 / threads=3 / lookahead_threads=1 / sliced_threads=0 / nr=0 / decimate=1 / interlaced=0 / bluray_compat=0 / constrained_intra=0 / bframes=3 / b_pyramid=2 / b_adapt=1 / b_bias=0 / direct=1 / weightb=1 / open_gop=0 / weightp=1 / keyint=250 / keyint_min=25 / scenecut=40 / intra_refresh=0 / rc_lookahead=10 / rc=abr / mbtree=1 / bitrate=3000 / ratetol=1.0 / qcomp=0.60 / qpmin=0 / qpmax=69 / qpstep=4 / vbv_maxrate=62500 / vbv_bufsize=78125 / nal_hrd=none / ip_ratio=1.40 / aq=1:1.00
Default : Да
Forced : Нет
Цветовой диапазон : Limited
Основные цвета : BT.709
Характеристики трансфера : BT.709
Коэффициенты матрицы : BT.709

Аудио
Идентификатор : 2
Формат : AAC
Формат/Информация : Advanced Audio Codec
Профиль формата : LC
Идентификатор кодека : A_AAC
Продолжительность : 58 м.
Битрейт : 160 Кбит/сек
Каналы : 2 канала
Расположение каналов : Front: L R
Частота : 48,0 КГц
Частота кадров : 46,875 кадров/сек (1024 spf)
Метод сжатия : С потерями
Размер потока : 66,9 Мбайт (5%)
Язык : English
Default : Да
Forced : Нет

Текст #1
Идентификатор : 3
Формат : UTF-8
Идентификатор кодека : S_TEXT/UTF8
Идентификатор кодека/Информация : UTF-8 Plain Text
Продолжительность : 58 м.
Битрейт : 205 бит/сек
Count of elements : 878
Размер потока : 87,5 Кбайт (0%)
Default : Нет
Forced : Нет

Текст #2
Идентификатор : 4
Формат : UTF-8
Идентификатор кодека : S_TEXT/UTF8
Идентификатор кодека/Информация : UTF-8 Plain Text
Продолжительность : 58 м.
Битрейт : 178 бит/сек
Count of elements : 878
Размер потока : 76,1 Кбайт (0%)
Default : Да
Forced : Нет
picpicpicpicpic
Для увеличения картинки щелкните мышкой по превью

Этот торрент недоступен для скачивания без регистрации, однако доступен по публичной magnet-ссылке (источники с публичных трекеров). Перед использованием ссылки прочтите, пожалуйста Пользовательское соглашение, а также как можно дольше оставайтесь на раздаче! Для того, чтобы скачать сам торрент-файл (который видит больше источников), а также для того, чтобы поблагодарить релизера, вам необходимо зарегистрироваться. Если регистрироваться лень - вы можете также попробовать скачать релиз по нашим партнерским ссылкам ниже.

[underverse.su].t69342.torrent
Трекер: Зарегистрирован   [ 22.08.2016 17:39 ]  

Статус: проверено (by makkol at 22.08.2016 22:01)
Поблагодарили: пока никто не поблагодарил...
Тип торрента: публичный - доступные источники с открытых трекеров: 
Размер: 1,29 GB (занимает 0,29 DVDR, для записи нужно 1 болванка DVDR/RW)
 
 

Яндекс.Метрика powered by Sphinx


В Н И М А Н И Е
Сайт не распространяет и не хранит электронные версии произведений, а лишь бесплатно и без коммерческой выгоды (не требуя взамен платы,
SMS и т.д.) предоставляет доступ к создаваемому пользователями каталогу ссылок на торрент-файлы, которые содержат только списки хеш-сумм.
Убедительная просьба с жалобами обращаться напрямую к пользователю, разместившему торрент файл.

Вверх