Loading...
Error

Дикая Иберия. Загадка иберийской рыси / Wild Iberia. Mystery of the Lynx (Клаус Файхтенбергер) [2012 г., документальный, научно-познавательный, фауна, флора, HDTVRip 720p] VO

Статистика раздачи
Размер:  1,53 GB   |    Зарегистрирован:  3 месяца 18 дней   |    Скачан:  2 раза

Полного источника не было: 1 месяц 26 дней

Сидов:  0  |  0 KB/s  ]   Личеров:  0  |  0 KB/s  ]

* - сиды/пиры с внешних источников

   
 
Автор Сообщение

ARI71 Пол:Муж

22-Авг-2016 16:21

Дикая Иберия. Загадка иберийской рыси / Wild Iberia. Mystery of the Lynx


Год выпуска: 2012
Жанр: документальный, научно-познавательный, фауна, флора
Страна: Австрия Terra Mater Factual Studios GmbH in co-production with Wanda Films
Режиссер: Клаус Файхтенбергер
Сюжет фильма:
Последний приют самой редкой кошки планеты. Две части охраняемого заповедника на юге Испании служат одной цели: они дают пристанище диким животным и растениям, некогда процветавшим, а теперь практически исчезнувшим. Иберийская рысь находится на грани вымирания и отчаянно борется за выживание, с помощью друзей.
Качество видео: HDTVRip 720p

Продолжительность: 00:43:44
Формат: MKV
Видео: AVC (х264), 1280x720, 5000 kbps
Аудио: русский, одноголосый (профессиональный), AC3 2.0, 192.00 kbps

Код:

Общее
Уникальный идентификатор : 245882816134615443154463664541586867129 (0xB8FB4ECEA0BEADC29ECF8E1BD042C3B9)
Полное имя : D:\Mystery of the Lynx_720p.mkv
Формат : Matroska
Версия формата : Version 4 / Version 2
Размер файла : 1,53 Гбайт
Продолжительность : 43 м.
Режим общего битрейта : Постоянный
Общий поток : 4994 Кбит/сек
Дата кодирования : UTC 2015-02-25 16:30:04
Программа кодирования : mkvmerge v7.6.0 ('Garden of Dreams') 64bit built on Feb 8 2015 13:04:34
Библиотека кодирования : libebml v1.3.1 + libmatroska v1.4.2

Видео
Идентификатор : 1
Формат : AVC
Формат/Информация : Advanced Video Codec
Профиль формата : High@L3.1
Параметр CABAC формата : Да
Параметр ReFrames формата : 3 кадра
Идентификатор кодека : V_MPEG4/ISO/AVC
Продолжительность : 43 м.
Вид битрейта : Постоянный
Битрейт : 5000 Кбит/сек / 5000 Кбит/сек
Ширина : 1280 пикселей
Высота : 720 пикселей
Соотношение сторон : 16:9
Режим частоты кадров : Постоянный
Частота кадров : 25,000 кадров/сек
Стандарт вещания : NTSC
Цветовое пространство : YUV
Субдискретизация насыщенности : 4:2:0
Битовая глубина : 8 бит
Тип развёртки : Прогрессивная
Бит/(Пиксели*Кадры) : 0.217
Размер потока : 1,47 Гбайт (96%)
Библиотека кодирования : x264 core 114
Настройки программы : cabac=1 / ref=3 / deblock=1:0:0 / analyse=0x3:0x113 / me=hex / subme=7 / psy=1 / psy_rd=1.00:0.00 / mixed_ref=1 / me_range=16 / chroma_me=1 / trellis=1 / 8x8dct=1 / cqm=2 / deadzone=21,11 / fast_pskip=1 / chroma_qp_offset=-2 / threads=6 / sliced_threads=0 / slices=1 / nr=0 / decimate=1 / interlaced=0 / constrained_intra=0 / bframes=3 / b_pyramid=0 / b_adapt=1 / b_bias=0 / direct=1 / weightb=1 / open_gop=0 / weightp=2 / keyint=250 / keyint_min=25 / scenecut=40 / intra_refresh=0 / rc_lookahead=40 / rc=cbr / mbtree=1 / bitrate=5000 / ratetol=1.0 / qcomp=0.60 / qpmin=3 / qpmax=69 / qpstep=4 / vbv_maxrate=5000 / vbv_bufsize=4997 / nal_hrd=cbr / ip_ratio=1.40 / aq=1:1.00
Default : Да
Forced : Нет
Цветовой диапазон : Limited
Основные цвета : BT.709
Характеристики трансфера : BT.709
Коэффициенты матрицы : BT.709

Аудио
Идентификатор : 2
Формат : AC-3
Формат/Информация : Audio Coding 3
Расширение режима : CM (complete main)
Параметр Endianness формата : Big
Идентификатор кодека : A_AC3
Продолжительность : 43 м.
Вид битрейта : Постоянный
Битрейт : 192 Кбит/сек
Каналы : 2 канала
Расположение каналов : Front: L R
Частота : 48,0 КГц
Частота кадров : 31,250 кадров/сек (1536 spf)
Метод сжатия : С потерями
Размер потока : 60,1 Мбайт (4%)
Default : Да
Forced : Нет
Релиз группы:

picpicpicpicpic
Для увеличения картинки щелкните мышкой по превью

Этот торрент недоступен для скачивания без регистрации, однако доступен по публичной magnet-ссылке (источники с публичных трекеров). Перед использованием ссылки прочтите, пожалуйста Пользовательское соглашение, а также как можно дольше оставайтесь на раздаче! Для того, чтобы скачать сам торрент-файл (который видит больше источников), а также для того, чтобы поблагодарить релизера, вам необходимо зарегистрироваться. Если регистрироваться лень - вы можете также попробовать скачать релиз по нашим партнерским ссылкам ниже.

[underverse.su].t69339.torrent
Трекер: Зарегистрирован   [ 22.08.2016 16:21 ]  

Статус: проверено (by makkol at 22.08.2016 22:11)
Поблагодарили: 1 человек
Тип торрента: публичный - доступные источники с открытых трекеров: 
Размер: 1,53 GB (занимает 0,35 DVDR, для записи нужно 1 болванка DVDR/RW)
 
 
Похожие темы
Форум Тема Автор Торрент Отв. Посл. сооб.
Научно-популярные фильмы Дикая Иберия / Wild Iberia (1 сезон: 1-4 серии из 4) / (Альваро Мендоза) [2014 г., документальный, природа, флора, фауна, HDTVRip 720p] Dub ARI71
2 | 0

0 | 442

1

20.08.2016 08:55


Яндекс.Метрика powered by Sphinx


В Н И М А Н И Е
Сайт не распространяет и не хранит электронные версии произведений, а лишь бесплатно и без коммерческой выгоды (не требуя взамен платы,
SMS и т.д.) предоставляет доступ к создаваемому пользователями каталогу ссылок на торрент-файлы, которые содержат только списки хеш-сумм.
Убедительная просьба с жалобами обращаться напрямую к пользователю, разместившему торрент файл.

Вверх