Loading...
Error

Шкала времени. Тайна обезглавленных римлян / Time Watch. The Mystery Of The Headless Romans (Ян Поттс) [2006 г., документальный, археология, исследование, история, SatRip] DVO

Статистика раздачи
Размер:  571 MB   |    Зарегистрирован:  3 месяца 17 дней   |    Скачан:  2 раза

Полного источника не было: 18 дней

Сидов:  0  |  0 KB/s  ]   Личеров:  0  |  0 KB/s  ]

* - сиды/пиры с внешних источников

   
 
Автор Сообщение

ARI71 Пол:Муж

22-Авг-2016 10:47

Шкала времени. Тайна обезглавленных римлян / Time Watch. The Mystery Of The Headless Romans


Год выпуска: 2006
Жанр: документальный, археология, исследование, история
Страна: Великобритания BBC
Режиссер: Ян Поттс
Сюжет фильма:
С открытия 30 обезглавленных скелетов в римской задней части дома в Древнем Йорке, начались интенсивные археологические исследования. С того момента, когда команда археологов нашла первые захоронения, она не могла объяснить некоторые странности этих останков. Когда тела были захоронены, их головы были отделены от туловища и помещены между колен, на груди или внизу ног. В одном захоронении у двух тел головы поменяны местами. Иногда головы были помещены обратно на плечи в правильное положение. Что все это значит и почему удалялись головы? Существуют несколько теорий для объяснения.
Качество видео: SatRip

Продолжительность: 00:48:47
Формат: AVI
Видео: XviD, 704x528, 1499 kbps
Аудио: русский, двухголосый (профессиональный), MP3 2.0, 128.00 kbps

Код:

Общее
Полное имя : D:\Шкала времени. Тайна обезглавленных римлян.2006.XviD.SATRip.DaVinci.avi
Формат : AVI
Формат/Информация : Audio Video Interleave
Размер файла : 571 Мбайт
Продолжительность : 48 м.
Общий поток : 1637 Кбит/сек
Библиотека кодирования : VirtualDub build 32842/release

Видео
Идентификатор : 0
Формат : MPEG-4 Visual
Профиль формата : Advanced Simple@L5
Параметр BVOP формата : 2
Параметр QPel формата : Нет
Параметр GMC формата : Без точки перехода
Параметр матрицы формата : Default (H.263)
Режим смешивания : Сжатый битовый поток
Идентификатор кодека : XVID
Идентификатор кодека/Подсказка : XviD
Продолжительность : 48 м.
Битрейт : 1499 Кбит/сек
Ширина : 704 пикселя
Высота : 528 пикселей
Соотношение сторон : 4:3
Частота кадров : 25,000 кадров/сек
Цветовое пространство : YUV
Субдискретизация насыщенности : 4:2:0
Битовая глубина : 8 бит
Тип развёртки : Прогрессивная
Метод сжатия : С потерями
Бит/(Пиксели*Кадры) : 0.161
Размер потока : 523 Мбайт (92%)
Библиотека кодирования : XviD 1.2.1 (UTC 2008-12-04)

Аудио
Идентификатор : 1
Формат : MPEG Audio
Версия формата : Version 1
Профиль формата : Layer 3
Режим : Joint stereo
Расширение режима : MS Stereo
Идентификатор кодека : 55
Идентификатор кодека/Подсказка : MP3
Продолжительность : 48 м.
Вид битрейта : Постоянный
Битрейт : 128 Кбит/сек
Каналы : 2 канала
Частота : 48,0 КГц
Метод сжатия : С потерями
Размер потока : 44,7 Мбайт (8%)
Выравнивание : Разделение по промежуткам
Продолжительность промежутка : 40 мс. (1,00 видеокадр)
Время предзагрузки промежутка : 500 мс.
Релиз-группа DaVinci
Ripped by: bobbybrown, телеканал «365 дней ТВ»
Red Media, озвучка, перевод
picpicpicpicpic
Для увеличения картинки щелкните мышкой по превью

Этот торрент недоступен для скачивания без регистрации, однако доступен по публичной magnet-ссылке (источники с публичных трекеров). Перед использованием ссылки прочтите, пожалуйста Пользовательское соглашение, а также как можно дольше оставайтесь на раздаче! Для того, чтобы скачать сам торрент-файл (который видит больше источников), а также для того, чтобы поблагодарить релизера, вам необходимо зарегистрироваться. Если регистрироваться лень - вы можете также попробовать скачать релиз по нашим партнерским ссылкам ниже.

[underverse.su].t69333.torrent
Трекер: Зарегистрирован   [ 22.08.2016 10:47 ]  

Статус: проверено (by Паукан at 22.08.2016 11:03)
Поблагодарили: пока никто не поблагодарил...
Тип торрента: публичный - доступные источники с открытых трекеров: 
Размер: 571 MB (занимает 0,13 DVDR, для записи нужно 1 болванка DVDR/RW)
 
 
Похожие темы
Форум Тема Автор Торрент Отв. Посл. сооб.
BBC Шкала времени. Эхнатон и Нефертити. Правящие боги Египта / Time Watch. Akhenaten and Nefertiti. The Royal Gods of Egypt [2002 г., документальный, египтология, история, археология, SatRip] DVO ARI71
0 | 0

1 | 1127

6

29.02.2016 12:11


Яндекс.Метрика powered by Sphinx


В Н И М А Н И Е
Сайт не распространяет и не хранит электронные версии произведений, а лишь бесплатно и без коммерческой выгоды (не требуя взамен платы,
SMS и т.д.) предоставляет доступ к создаваемому пользователями каталогу ссылок на торрент-файлы, которые содержат только списки хеш-сумм.
Убедительная просьба с жалобами обращаться напрямую к пользователю, разместившему торрент файл.

Вверх