Loading...
Error

Обзор матчей 1-го тура Чемпионата Англии 2016-2017 по футболу [2016 г., Футбол, HDTVRip 720p]

Статистика раздачи
Размер:  1,48 GB   |    Зарегистрирован:  3 месяца 17 дней   |    Скачан:  3 раза

Полного источника не было: 1 месяц 23 дня

Сидов:  0  |  0 KB/s  ]   Личеров:  0  |  0 KB/s  ]

* - сиды/пиры с внешних источников

   
 
Автор Сообщение

lithium 

22-Авг-2016 07:37

Обзор матчей 1-го тура Чемпионата Англии 2016-2017 по футболу


Год выпуска: 2016
Вид спорта: Футбол
Страна: Великобритания
Описание:
Премьер-лига сезона 2016/17 — 25-й розыгрыш в истории Премьер-лиги, основанной в 1992 году.

Сезон начался 13 августа 2016 года и завершится 21 мая 2017 года. Жеребьёвка календаря турнира состоялась 15 июня 2016 года.

Чемпионский титул защищает «Лестер Сити». Новыми участниками турнира стали «Бернли», «Халл Сити» и «Мидлсбро». Материал из Википедии — свободной энциклопедии.
Качество видео: HDTVRip 720p

Продолжительность: 00:51:31
Формат: MKV
Видео: MPEG-4 AVC, 1280*720, 50fps, 3832 Kbps
Аудио: русский, оригинал, AC3 2.0, 192 Kbps

Код:

Уникальный идентификатор : 171358641676339215136693403551726003284 (0x80EA79530B390C8FF77DBE313B1F6454)
Полное имя                               : Чемпионат Англии 2016-2017 Обзор 1-й тур (15.08.16).mkv
Формат                                   : Matroska
Версия формата                           : Version 2
Размер файла                             : 1,48 Гбайт
Продолжительность                        : 51 м.
Общий поток                              : 4105 Кбит/сек
Программа кодирования                    : Lavf54.63.104
Библиотека кодирования                   : Lavf54.63.104 / Lavf54.63.104

Идентификатор                            : 1
Формат                                   : AVC
Формат/Информация                        : Advanced Video Codec
Профиль формата                          : High@L3.2
Параметр CABAC формата                   : Да
Параметр ReFrames формата                : 4 кадра
Идентификатор кодека                     : V_MPEG4/ISO/AVC
Продолжительность                        : 51 м.
Битрейт                                  : 3832 Кбит/сек
Ширина                                   : 1280 пикселей
Высота                                   : 720 пикселей
Соотношение сторон                       : 16:9
Режим частоты кадров                     : Постоянный
Частота кадров                           : 50,000 кадров/сек
Цветовое пространство                    : YUV
Субдискретизация насыщенности            : 4:2:0
Битовая глубина                          : 8 бит
Тип развёртки                            : Прогрессивная
Бит/(Пиксели*Кадры)                      : 0.083
Размер потока                            : 1,38 Гбайт (93%)
Default                                  : Нет
Forced                                   : Нет

Идентификатор                            : 2
Формат                                   : AC-3
Формат/Информация                        : Audio Coding 3
Расширение режима                        : CM (complete main)
Параметр Endianness формата              : Big
Идентификатор кодека                     : A_AC3
Продолжительность                        : 51 м.
Вид битрейта                             : Постоянный
Битрейт                                  : 192 Кбит/сек
Каналы                                   : 2 канала
Расположение каналов                     : Front: L R
Частота                                  : 48,0 КГц
Частота кадров                           : 31,250 кадров/сек (1536 spf)
Метод сжатия                             : С потерями
Размер потока                            : 70,7 Мбайт (5%)
Язык                                     : English
Default                                  : Да
Forced                                   : Нет
picpicpic
Для увеличения картинки щелкните мышкой по превью

Этот торрент недоступен для скачивания без регистрации, однако доступен по публичной magnet-ссылке (источники с публичных трекеров). Перед использованием ссылки прочтите, пожалуйста Пользовательское соглашение, а также как можно дольше оставайтесь на раздаче! Для того, чтобы скачать сам торрент-файл (который видит больше источников), а также для того, чтобы поблагодарить релизера, вам необходимо зарегистрироваться. Если регистрироваться лень - вы можете также попробовать скачать релиз по нашим партнерским ссылкам ниже.

[underverse.su].t69331.torrent
Трекер: Зарегистрирован   [ 22.08.2016 07:37 ]  

Статус: проверено (by makkol at 22.08.2016 11:27)
Поблагодарили: пока никто не поблагодарил...
Тип торрента: публичный - доступные источники с открытых трекеров: 
Размер: 1,48 GB (занимает 0,34 DVDR, для записи нужно 1 болванка DVDR/RW)
 
 

Яндекс.Метрика powered by Sphinx


В Н И М А Н И Е
Сайт не распространяет и не хранит электронные версии произведений, а лишь бесплатно и без коммерческой выгоды (не требуя взамен платы,
SMS и т.д.) предоставляет доступ к создаваемому пользователями каталогу ссылок на торрент-файлы, которые содержат только списки хеш-сумм.
Убедительная просьба с жалобами обращаться напрямую к пользователю, разместившему торрент файл.

Вверх