Loading...
Error

Джабервоки / Бармаглот / Jabberwocky (Терри Гиллиам) [1977 г., фэнтези, комедия, приключения, DVDRip] MVO + AVO + Original

Статистика раздачи
Размер:  2,18 GB   |    Зарегистрирован:  3 месяца 18 дней   |    Скачан:  5 раз

Полного источника не было: 2 месяца

Сидов:  0  |  0 KB/s  ]   Личеров:  0  |  0 KB/s  ]

* - сиды/пиры с внешних источников

   
 
Автор Сообщение

makkol Пол:Муж

21-Авг-2016 13:33

Джабервоки / Бармаглот / Jabberwocky


Год выпуска: 1977
Жанр: фэнтези, комедия, приключения
Производство: Великобритания [Python Films, Umbrella Films]
Режиссер: Терри Гиллиам
В ролях: Майкл Пэлин, Макс Уолл, Дебора Фоллендер, Аннет Бэдленд, Терри Джонс, Уоррен Митчелл, Джон Ле Мезюрье, Гарри Х. Корбет, Родни Бьюэз, Бернард Бресслоу
Сюжет фильма:
Ах, эти блестящие, мрачные Средние века... Прекрасные принцессы, сладкоголосые трубадуры, невменяемые рыцари и порожденные сном разума легендарные чудовища. Кстати, о чудовищах: в одном королевстве завелся монстр по имени Джабервоки. И вот, нанося огромный урон народному хозяйству, он безнаказанно терроризирует округу - никто не может его победить. К счастью, храбрость в те годы встречалась чаще, чем мозги. И вот, в поисках богатства и почета, на монстра выезжает отважный рыц... простите, бондарь Деннис! То и дело попадая в нелепые положения и анекдотические ситуации деревенский простак торит свой загогулистый путь к Славе. Охота на Джабервока началась!

После теплого приема зрителями и критиками первого фильма английских комиков — "Монти Пайтон и Святой Грааль", Гиллиам расстарался вовсю: средневековье получилось у него таким грязным, что «портянки можно сушить, не стирая», а шутки — такими натуралистичными и пошлыми, что поручик Ржевский удавился бы от зависти. Всем поклонникам эксцентричного британского юмора посвящается! Участники знаменитой комик-труппы "Монти Пайтон" Терри Гиллиам и Майкл Пэлин представляют вашему вниманию уморительную хулиганскую фантазию абсурда по мотивам поэмы Льюиса Кэролла "Джабервоки", самой известной и цитируемой части гениального произведения - "Алиса в Зазеркалье", по мнению многих критиков, "величайшего стихотворного нонсенса на английском языке".

  • Мировая премьера: 28 марта 1977


Качество видео: DVDRip

Продолжительность: 01:40:52
Формат: AVI
Видео: XviD, 704x384 (1.85:1), 25.000 fps, 2240 kbps
Аудио #1: русский, профессиональный многоголосый закадровый (Видеосервис), AC3 2.0, 48 kHz, 192 kbps
Аудио #2: русский, авторский одноголосый закадровый (Алексей Михалёв), AC3 2.0, 48 kHz, 192 kbps
Аудио #3: английский, оригинал, AC3 5.1, 48 kHz, 448 kbps

Код:

Формат : AVI
Формат/Информация : Audio Video Interleave
Профиль формата : OpenDML
Размер файла : 2,18 Гбайт
Продолжительность : 1 ч. 40 м.
Общий поток : 3096 Кбит/сек
Программа кодирования : VirtualDubMod 1.5.10.3 | www.virtualdub-fr.org || (build 2550/release)
Библиотека кодирования : VirtualDubMod build 2550/release

Видео
Идентификатор : 0
Формат : MPEG-4 Visual
Профиль формата : Advanced Simple@L5
Параметр BVOP формата : 2
Параметр QPel формата : Нет
Параметр GMC формата : Без точки перехода
Параметр матрицы формата : Выборочная
Идентификатор кодека : XVID
Идентификатор кодека/Подсказка : XviD
Продолжительность : 1 ч. 40 м.
Битрейт : 2240 Кбит/сек
Ширина : 704 пикселя
Высота : 384 пикселя
Соотношение сторон : 1,85:1
Частота кадров : 25,000 кадров/сек
Цветовое пространство : YUV
Субдискретизация насыщенности : 4:2:0
Битовая глубина : 8 бит
Тип развёртки : Прогрессивная
Метод сжатия : С потерями
Бит/(Пиксели*Кадры) : 0.331
Размер потока : 1,58 Гбайт (72%)
Библиотека кодирования : XviD 73

Аудио #1
Идентификатор : 1
Формат : AC-3
Формат/Информация : Audio Coding 3
Расширение режима : CM (complete main)
Параметр Endianness формата : Big
Идентификатор кодека : 2000
Продолжительность : 1 ч. 40 м.
Вид битрейта : Постоянный
Битрейт : 192 Кбит/сек
Каналы : 2 канала
Расположение каналов : Front: L R
Частота : 48,0 КГц
Битовая глубина : 16 бит
Метод сжатия : С потерями
Размер потока : 139 Мбайт (6%)
Выравнивание : Разделение по промежуткам
Продолжительность промежутка : 40 мс. (1,00 видеокадр)
Время предзагрузки промежутка : 500 мс.

Аудио #2
Идентификатор : 2
Формат : AC-3
Формат/Информация : Audio Coding 3
Расширение режима : CM (complete main)
Параметр Endianness формата : Big
Идентификатор кодека : 2000
Продолжительность : 1 ч. 40 м.
Вид битрейта : Постоянный
Битрейт : 192 Кбит/сек
Каналы : 2 канала
Расположение каналов : Front: L R
Частота : 48,0 КГц
Битовая глубина : 16 бит
Метод сжатия : С потерями
Размер потока : 139 Мбайт (6%)
Выравнивание : Разделение по промежуткам
Продолжительность промежутка : 40 мс. (1,00 видеокадр)
Время предзагрузки промежутка : 500 мс.

Аудио #3
Идентификатор : 3
Формат : AC-3
Формат/Информация : Audio Coding 3
Расширение режима : CM (complete main)
Параметр Endianness формата : Big
Идентификатор кодека : 2000
Продолжительность : 1 ч. 40 м.
Вид битрейта : Постоянный
Битрейт : 448 Кбит/сек
Каналы : 6 каналов
Расположение каналов : Front: L C R, Side: L R, LFE
Частота : 48,0 КГц
Битовая глубина : 16 бит
Метод сжатия : С потерями
Размер потока : 323 Мбайт (14%)
Выравнивание : Разделение по промежуткам
Продолжительность промежутка : 40 мс. (1,00 видеокадр)
Время предзагрузки промежутка : 500 мс.
Релиз: tеko

picpicpicpicpic
Для увеличения картинки щелкните мышкой по превью

Этот торрент недоступен для скачивания без регистрации, однако доступен по публичной magnet-ссылке (источники с публичных трекеров). Перед использованием ссылки прочтите, пожалуйста Пользовательское соглашение, а также как можно дольше оставайтесь на раздаче! Для того, чтобы скачать сам торрент-файл (который видит больше источников), а также для того, чтобы поблагодарить релизера, вам необходимо зарегистрироваться. Если регистрироваться лень - вы можете также попробовать скачать релиз по нашим партнерским ссылкам ниже.

[underverse.su].t69310.torrent
Трекер: Зарегистрирован   [ 21.08.2016 13:33 ]  

Статус: проверено (by makkol at 22.08.2016 23:08)
Поблагодарили: пока никто не поблагодарил...
Тип торрента: публичный - доступные источники с открытых трекеров: 
Размер: 2,18 GB (занимает 1/2 DVDR, для записи нужно 1 болванка DVDR/RW)
 
 

Яндекс.Метрика powered by Sphinx


В Н И М А Н И Е
Сайт не распространяет и не хранит электронные версии произведений, а лишь бесплатно и без коммерческой выгоды (не требуя взамен платы,
SMS и т.д.) предоставляет доступ к создаваемому пользователями каталогу ссылок на торрент-файлы, которые содержат только списки хеш-сумм.
Убедительная просьба с жалобами обращаться напрямую к пользователю, разместившему торрент файл.

Вверх