Loading...
Error

Наш бренд – кризис / Our Brand Is Crisis (Дэвид Гордон Грин) [2015 г., драма, комедия, HDRip] MVO (официальный звук)

Статистика раздачи
Размер:  1,46 GB   |    Зарегистрирован:  3 месяца 18 дней   |    Скачан:  15 раз

Полного источника не было: 54 минуты

Сидов:  0  |  0 KB/s  ]   Личеров:  0  |  0 KB/s  ]

* - сиды/пиры с внешних источников

   
 
Автор Сообщение

makkol Пол:Муж

21-Авг-2016 10:28

Наш бренд – кризис / Our Brand Is Crisis


Год выпуска: 2015
Производство: США [Participant Media, Smokehouse Pictures]
Жанр: драма, комедия
Режиссер: Дэвид Гордон Грин
В ролях: Сандра Буллок, Билли Боб Торнтон, Энтони Маки, Жоаким ди Алмейда, Энн Дауд, Скут МакНэри, Зои Казан, Стивен Флорес
Сюжет фильма:
Фильм, основанный на документальных съёмках, покажет изнанку избирательной кампании 2002 года, когда кандидат в президенты Боливии Гонсало Санчес де Лосада нанял политтехнологов из консалтинговой фирмы Greenberg Quinlan Rosner, чтобы прийти к победе.

  • Мировая премьера: 11 сентября 2015


Качество видео: HDRip

Продолжительность: 01:47:50
Формат: AVI
Видео: XviD, 720x400 (16:9), 23.976 fps, 1658 kbps
Аудио: русский, профессиональный многоголосый закадровый (официальный звук), AC3 2.0, 48 kHz, 192 kbps

Код:

Format : AVI
Format/Info : Audio Video Interleave
File size : 1.46 GiB
Duration : 1h 47mn
Overall bit rate : 1 935 Kbps
Writing application : VirtualDubMod 1.5.10.2 (build 2540/release)
Writing library : VirtualDubMod build 2540/release

Video #0
ID : 0
Format : MPEG-4 Visual
Format profile : Advanced Simple@L5
Format settings, BVOP : 2
Format settings, QPel : No
Format settings, GMC : No warppoints
Format settings, Matrix : Custom
Codec ID : XVID
Codec ID/Hint : XviD
Duration : 1h 47mn
Bit rate : 1 658 Kbps
Width : 720 pixels
Height : 400 pixels
Display aspect ratio : 16:9
Frame rate : 23.976 fps
Color space : YUV
Chroma subsampling : 4:2:0
Bit depth : 8 bits
Scan type : Progressive
Compression mode : Lossy
Bits/(Pixel*Frame) : 0.240
Stream size : 1.25 GiB (86%)
Writing library : XviD 1.2.1 (UTC 2008-12-04)

Audio #1
ID : 1
Format : AC-3
Format/Info : Audio Coding 3
Mode extension : CM (complete main)
Format settings, Endianness : Big
Codec ID : 2000
Duration : 1h 47mn
Bit rate mode : Constant
Bit rate : 192 Kbps
Channel(s) : 2 channels
Channel positions : Front: L R
Sampling rate : 48.0 KHz
Compression mode : Lossy
Stream size : 148 MiB (10%)
Alignment : Split accross interleaves
Присутствует реклама


picpicpicpicpic
Для увеличения картинки щелкните мышкой по превью

Этот торрент недоступен для скачивания без регистрации, однако доступен по публичной magnet-ссылке (источники с публичных трекеров). Перед использованием ссылки прочтите, пожалуйста Пользовательское соглашение, а также как можно дольше оставайтесь на раздаче! Для того, чтобы скачать сам торрент-файл (который видит больше источников), а также для того, чтобы поблагодарить релизера, вам необходимо зарегистрироваться. Если регистрироваться лень - вы можете также попробовать скачать релиз по нашим партнерским ссылкам ниже.

[underverse.su].t69303.torrent
Трекер: Зарегистрирован   [ 21.08.2016 10:28 ]  

Статус: T временная (by makkol at 22.08.2016 23:04)
Поблагодарили: 1 человек
Тип торрента: публичный - доступные источники с открытых трекеров: 
Размер: 1,46 GB (занимает 1/3 DVDR, для записи нужно 1 болванка DVDR/RW)
 
 
Похожие темы
Форум Тема Автор Торрент Отв. Посл. сооб.
Зарубежное кино [DVDRip, Low-Res HDRip, и т.д.] Наш бренд – кризис / Our Brand Is Crisis (Дэвид Гордон Грин / David Gordon Green) [2015 г., драма, комедия, HDRip] DVO (Parovoz Production) + Original (Eng) 90ytr90
57 | 4

0 | 392

14

21.01.2016 18:57

Зарубежное кино [DVDRip, Low-Res HDRip, и т.д.] Наш бренд – кризис / Our Brand Is Crisis (Дэвид Гордон Грин / David Gordon Green) [2015 г., драма, комедия, BDRip] AVO (Дольский) 90ytr90
10 | 4

0 | 292

11

23.01.2016 12:20

Зарубежное кино [HDDVDRip / BDRip / WEB-DL / HDTV 1080/720р] Наш бренд – кризис / Our Brand Is Crisis (Дэвид Гордон Грин / David Gordon Green) [2015 г., драма, комедия, BDRip 720p] DVO (Parovoz Production) + Original (Eng) 90ytr90
20 | 0

0 | 353

4

21.01.2016 19:12

T Зарубежное кино [HDDVDRip / BDRip / WEB-DL / HDTV 1080/720р] Наш бренд – кризис / Our Brand Is Crisis (Дэвид Гордон Грин) [2015 г., драма, комедия, BDRip 720p] MVO (официальный звук) makkol
17 | 0

0 | 414

5

21.08.2016 10:38

T Зарубежное кино [HDDVDRip / BDRip / WEB-DL / HDTV 1080/720р] Наш бренд – кризис / Our Brand Is Crisis (Дэвид Гордон Грин) [2015 г., драма, комедия, BDRip 1080p] MVO (официальный звук) makkol
31 | 0

0 | 447

5

21.08.2016 10:44


Яндекс.Метрика powered by Sphinx


В Н И М А Н И Е
Сайт не распространяет и не хранит электронные версии произведений, а лишь бесплатно и без коммерческой выгоды (не требуя взамен платы,
SMS и т.д.) предоставляет доступ к создаваемому пользователями каталогу ссылок на торрент-файлы, которые содержат только списки хеш-сумм.
Убедительная просьба с жалобами обращаться напрямую к пользователю, разместившему торрент файл.

Вверх