Loading...
Error

Истории о древней земле. Знакомьтесь с предками / Stories from the Dark Earth. Meet the Ancestors (1-4 серии из 4) / (Бен Кричтон, Вилл Ярсли, Марк Вильямс) [2013 г., документальный, история, наука, археология, HDTVRip 720p] Dub + Original (Eng)

Статистика раздачи
Размер:  5,56 GB   |    Зарегистрирован:  9 месяцев   |    Скачан:  5 раз

Полного источника не было: 9 дней

Сидов:  0  |  0 KB/s  ]   Личеров:  0  |  0 KB/s  ]

* - сиды/пиры с внешних источников

   
 
Автор Сообщение

ARI71 Пол:Муж

21-Авг-2016 04:52

Истории о древней земле. Знакомьтесь с предками / Stories from the Dark Earth. Meet the Ancestors (1-4 серии из 4)


Год выпуска: 2013
Жанр: документальный, история, наука, археология
Страна: Великобритания BBC
Режиссер: Бен Кричтон, Вилл Ярсли, Марк Вильямс, Джорджина Лесли
Ведущий: Джулиан Ричардс
Сюжет фильма:
В различных уголках Британии археологи находят древние реликвии. Современная археология - это по большей части то, что происходит после раскопок. Сегодня последние достижения в области криминологии и других наук меняют всё наше представление о целых эпохах древней истории. Археолог Джулиан Ричардс вспоминает о прошлом, чтобы рассказать самые интересные истории о наших древних предках.
Качество видео: HDTVRip 720p

Продолжительность: 4 x ~ 00:59:00
Формат: MKV
Видео: AVC (x264), 1280x720, ~3000 kbps
Аудио #1: русский, (дублированный), AC3 2.0, ~192.00 kbps
Аудио #2: английский, (оригинал), AC3 2.0, ~192.00 kbps
(тех. данные всех серий идентичны)

Код:

Общее
Уникальный идентификатор : 171921013319673849027434291372998634812 (0x8156C8631A190B59A51FE00679C5AD3C)
Полное имя : D:\Stories from the Dark Earth_720p\01_Pagans of Roman Britain.mkv
Формат : Matroska
Версия формата : Version 4 / Version 2
Размер файла : 1,39 Гбайт
Продолжительность : 58 м.
Режим общего битрейта : Переменный
Общий поток : 3386 Кбит/сек
Дата кодирования : UTC 2016-08-12 10:46:23
Программа кодирования : mkvmerge v6.9.1 ('Blue Panther') 64bit built on Apr 18 2014 18:23:38
Библиотека кодирования : libebml v1.3.0 + libmatroska v1.4.1

Видео
Идентификатор : 1
Формат : AVC
Формат/Информация : Advanced Video Codec
Профиль формата : High@L4.1
Параметр CABAC формата : Да
Параметр ReFrames формата : 9 кадров
Идентификатор кодека : V_MPEG4/ISO/AVC
Продолжительность : 58 м.
Вид битрейта : Переменный
Битрейт : 3000 Кбит/сек
Максимальный битрейт : 18,4 Мбит/сек
Ширина : 1280 пикселей
Высота : 720 пикселей
Соотношение сторон : 16:9
Режим частоты кадров : Постоянный
Частота кадров : 25,000 кадров/сек
Стандарт вещания : Component
Цветовое пространство : YUV
Субдискретизация насыщенности : 4:2:0
Битовая глубина : 8 бит
Тип развёртки : Прогрессивная
Бит/(Пиксели*Кадры) : 0.130
Размер потока : 1,21 Гбайт (87%)
Библиотека кодирования : x264 core 144
Настройки программы : cabac=1 / ref=9 / deblock=1:0:0 / analyse=0x3:0x113 / me=hex / subme=7 / psy=1 / psy_rd=1.00:0.00 / mixed_ref=1 / me_range=16 / chroma_me=1 / trellis=1 / 8x8dct=1 / cqm=1 / deadzone=21,11 / fast_pskip=1 / chroma_qp_offset=-2 / threads=6 / lookahead_threads=1 / sliced_threads=0 / slices=1 / nr=0 / decimate=1 / interlaced=0 / minigop=0 / stitchable=1 / constrained_intra=0 / bframes=3 / b_pyramid=0 / b_adapt=1 / b_bias=0 / direct=1 / weightb=1 / open_gop=1 / weightp=2 / keyint=250 / keyint_min=25 / scenecut=40 / intra_refresh=0 / rc_lookahead=40 / rc=2pass / mbtree=1 / bitrate=3000 / ratetol=1.0 / qcomp=0.60 / qpmin=3 / qpmax=69 / qpstep=4 / cplxblur=20.0 / qblur=0.5 / vbv_maxrate=18400 / vbv_bufsize=18400 / nal_hrd=vbr / filler=0 / ip_ratio=1.40 / aq=1:1.00
Default : Да
Forced : Нет
Цветовой диапазон : Limited
Основные цвета : BT.709
Характеристики трансфера : BT.709
Коэффициенты матрицы : BT.709

Аудио #1
Идентификатор : 2
Формат : AC-3
Формат/Информация : Audio Coding 3
Расширение режима : CM (complete main)
Параметр Endianness формата : Big
Идентификатор кодека : A_AC3
Продолжительность : 58 м.
Вид битрейта : Постоянный
Битрейт : 192 Кбит/сек
Каналы : 2 канала
Расположение каналов : Front: L R
Частота : 48,0 КГц
Частота кадров : 31,250 кадров/сек (1536 spf)
Метод сжатия : С потерями
Размер потока : 80,9 Мбайт (6%)
Язык : Russian
Default : Да
Forced : Нет

Аудио #2
Идентификатор : 3
Формат : AC-3
Формат/Информация : Audio Coding 3
Расширение режима : CM (complete main)
Параметр Endianness формата : Big
Идентификатор кодека : A_AC3
Продолжительность : 58 м.
Вид битрейта : Постоянный
Битрейт : 192 Кбит/сек
Каналы : 2 канала
Расположение каналов : Front: L R
Частота : 48,0 КГц
Частота кадров : 31,250 кадров/сек (1536 spf)
Метод сжатия : С потерями
Размер потока : 80,9 Мбайт (6%)
Язык : English
Default : Нет
Forced : Да
01. Язычники римской Британии / Pagans of Roman Britain
Ни один период британской истории не оставил после себя такое наследие, какое сохранилось после веков римского правления. Римляне начали оставлять свои следы на острове как только захватили его. Они внесли свой вклад в формирование этой нации, и даже дали ей имя - Британия.

02. Семьи каменного века / Families of the Stone Age
Неолит - новый каменный век - эпоха древняя и загадочная. Она началась в Британии более 6000 лет назад. Люди перешли от охоты и собирательства к земледелию и создали величайшие памятники нынешней древней истории. Но если не считать известные сооружения, то новых находок, особенно могильников, не много. И когда их находят, археологи очень радуются, потому что малейшие детали, неожиданные мелочи могут полностью изменить наше представление о минувшей эпохе. Два открытия, сделанных более 10-ти лет назад, прорубили окна в то далекое время.

03. Священная женщина железного века / Sacred Women of the Iron Age
Железный век это эпоха, начавшаяся 2800 лет назад, и это самый туманный период нашего древнего доисторического прошлого. Это было время, когда воинственные племена сражались друг с другом, держа в руках искусно сделанные мечи и щиты. История железного века это рассказ о мужчинах при игнорировании другой половины населения. Но могильники женщин железного века поведали ученым очень много о жизни и смерти, о слоях тогдашнего общества, о религии и ритуалах.

04. Первые англосаксы / The First Anglo-Saxons
Англосаксы - воинственный народ, захвативший Британию после ослабления Римской империи, и в нашей истории началась новая эра. Археологов очень интересует ранний период этой темной эпохи, им не плохо знаком предыдущий римский период и более поздний англо-саксонский, но о Британии 5-го века нашей эры известно мало. Кем были эти первые англо-саксы?
Автор Rip'а: skorpionN

Документальный дубляж - "SDI Media"
Голос рассказчика - полный дубляж
Интервью - слышна оригинальная речь
picpicpicpicpic
Для увеличения картинки щелкните мышкой по превью

Этот торрент недоступен для скачивания без регистрации, однако доступен по публичной magnet-ссылке (источники с публичных трекеров). Перед использованием ссылки прочтите, пожалуйста Пользовательское соглашение, а также как можно дольше оставайтесь на раздаче! Для того, чтобы скачать сам торрент-файл (который видит больше источников), а также для того, чтобы поблагодарить релизера, вам необходимо зарегистрироваться. Если регистрироваться лень - вы можете также попробовать скачать релиз по нашим партнерским ссылкам ниже.

[underverse.su].t69300.torrent
Трекер: Зарегистрирован   [ 21.08.2016 04:52 ]  

Статус: проверено (by makkol at 21.08.2016 09:52)
Поблагодарили: пока никто не поблагодарил...
Тип торрента: публичный - доступные источники с открытых трекеров: 
Размер: 5,56 GB (занимает 1,27 DVDR, для записи нужно 2 болванки DVDR/RW)
 
 

Яндекс.Метрика powered by Sphinx


В Н И М А Н И Е
Сайт не распространяет и не хранит электронные версии произведений, а лишь бесплатно и без коммерческой выгоды (не требуя взамен платы,
SMS и т.д.) предоставляет доступ к создаваемому пользователями каталогу ссылок на торрент-файлы, которые содержат только списки хеш-сумм.
Убедительная просьба с жалобами обращаться напрямую к пользователю, разместившему торрент файл.

Вверх