Loading...
Error

Людовик ХIV, загадка форта Сент Себастьян / Louis XIV et l'еnigme du fort Saint Sеbastien (Лоран Мармоль, Фредерик Лоссиньоль) [2014 г., документальный, история, археология, архитектура, SatRip] Dub

Статистика раздачи
Размер:  748 MB   |    Зарегистрирован:  3 месяца 14 дней   |    Скачан:  2 раза

Полного источника не было: 1 месяц 21 день

Сидов:  0  |  0 KB/s  ]   Личеров:  0  |  0 KB/s  ]

* - сиды/пиры с внешних источников

   
 
Автор Сообщение

ARI71 Пол:Муж

20-Авг-2016 17:32

Людовик ХIV, загадка форта Сент Себастьян / Louis XIV et l'еnigme du fort Saint Sеbastien


Год выпуска: 2014
Жанр: документальный, история, археология, архитектура
Страна: Франция Gedeon Programmes, TV5 Monde
Режиссер: Лоран Мармоль, Фредерик Лоссиньоль
Сюжет фильма:
В ходе строительных работ в пригороде Парижа, недалеко от Сены, было обнаружено забытое всеми место, свидетельствующее об одной из величайших эпох в истории Франции. С ним была связана судьба молодого Людовика, будущего великого государя. В форте Сент-Себастьян проходили военные учения. Армия короля готовилась к завоеваниям Голландии и других стран Европы. Людовик по прозвищу Король-Солнце вызывал всеобщее восхищение, а многие даже боялись его.
Качество видео: SatRip

Продолжительность: 00:52:21
Формат: AVI
Видео: XviD, 720x400, 1798 kbps
Аудио: русский, (дублированный), AC3 2.0, 192.00 kbps

Код:

Общее
Полное имя : D:\Louis XIV et l'énigme du fort Saint Sébastien.avi
Формат : AVI
Формат/Информация : Audio Video Interleave
Размер файла : 748 Мбайт
Продолжительность : 52 м.
Общий поток : 1998 Кбит/сек
Программа кодирования : TMPGEnc Video Mastering Works 5 Version. 5.0.6.38
Библиотека кодирования : TMPGEnc Video Mastering Works 5 Version. 5.0.6.38

Видео
Идентификатор : 0
Формат : MPEG-4 Visual
Профиль формата : Advanced Simple@L5
Параметр BVOP формата : 2
Параметр QPel формата : Нет
Параметр GMC формата : Без точки перехода
Параметр матрицы формата : Default (H.263)
Режим смешивания : Сжатый битовый поток
Идентификатор кодека : XVID
Идентификатор кодека/Подсказка : XviD
Продолжительность : 52 м.
Битрейт : 1798 Кбит/сек
Ширина : 720 пикселей
Высота : 400 пикселей
Соотношение сторон : 16:9
Частота кадров : 25,000 кадров/сек
Цветовое пространство : YUV
Субдискретизация насыщенности : 4:2:0
Битовая глубина : 8 бит
Тип развёртки : Прогрессивная
Метод сжатия : С потерями
Бит/(Пиксели*Кадры) : 0.250
Размер потока : 673 Мбайт (90%)
Библиотека кодирования : XviD 73

Аудио
Идентификатор : 1
Формат : AC-3
Формат/Информация : Audio Coding 3
Расширение режима : CM (complete main)
Параметр Endianness формата : Big
Идентификатор кодека : 2000
Продолжительность : 52 м.
Вид битрейта : Постоянный
Битрейт : 192 Кбит/сек
Каналы : 2 канала
Расположение каналов : Front: L R
Частота : 48,0 КГц
Частота кадров : 31,250 кадров/сек (1536 spf)
Метод сжатия : С потерями
Размер потока : 71,9 Мбайт (10%)
Выравнивание : Соединение по промежуткам
Продолжительность промежутка : 240 мс. (6,00 видеокадров)
Время предзагрузки промежутка : 224 мс.
picpicpicpicpic
Для увеличения картинки щелкните мышкой по превью

Этот торрент недоступен для скачивания без регистрации, однако доступен по публичной magnet-ссылке (источники с публичных трекеров). Перед использованием ссылки прочтите, пожалуйста Пользовательское соглашение, а также как можно дольше оставайтесь на раздаче! Для того, чтобы скачать сам торрент-файл (который видит больше источников), а также для того, чтобы поблагодарить релизера, вам необходимо зарегистрироваться. Если регистрироваться лень - вы можете также попробовать скачать релиз по нашим партнерским ссылкам ниже.

[underverse.su].t69286.torrent
Трекер: Зарегистрирован   [ 20.08.2016 17:32 ]  

Статус: проверено (by makkol at 20.08.2016 21:09)
Поблагодарили: пока никто не поблагодарил...
Тип торрента: публичный - доступные источники с открытых трекеров: 
Размер: 748 MB (занимает 0,17 DVDR, для записи нужно 1 болванка DVDR/RW)
 
 

Яндекс.Метрика powered by Sphinx


В Н И М А Н И Е
Сайт не распространяет и не хранит электронные версии произведений, а лишь бесплатно и без коммерческой выгоды (не требуя взамен платы,
SMS и т.д.) предоставляет доступ к создаваемому пользователями каталогу ссылок на торрент-файлы, которые содержат только списки хеш-сумм.
Убедительная просьба с жалобами обращаться напрямую к пользователю, разместившему торрент файл.

Вверх