Loading...
Error

Загадка римских катакомб / The Mystery of Rome's X Tomb (Пол Олдинг) [2013 г., документальный, научно-познавательный, история, HDTVRip 720p] VO

Статистика раздачи
Размер:  1,8 GB   |    Зарегистрирован:  3 месяца 19 дней   |    Скачан:  4 раза

Полного источника не было: 1 месяц 25 дней

Сидов:  0  |  0 KB/s  ]   Личеров:  0  |  0 KB/s  ]

* - сиды/пиры с внешних источников

   
 
Автор Сообщение

ARI71 Пол:Муж

20-Авг-2016 13:35

Загадка римских катакомб / The Mystery of Rome's X Tomb


Год выпуска: 2013
Жанр: документальный, научно-познавательный, история
Страна: Великобритания BBC
Режиссер: Пол Олдинг
Сюжет фильма:
Катакомбы Рима - сеть античных катакомб, использовавшихся как места погребений, по большей части в период раннего христианства. Всего в Риме насчитывают более 60 различных катакомб (150—170 км длиной, около 750 000 захоронений), большинство из которых расположены под землей вдоль Аппиевой дороги. Эти катакомбы представляют собой систему подземных ходов из туфа, зачастую образующих лабиринты. В их стенах для погребений проделывались прямоугольные ниши (лат. loculi) разной величины (главным образом для одного умершего, иногда для двух, и редко — для нескольких тел). На сегодняшний день почти все ниши открыты и пусты, однако сохранились и до сих пор закрытые (например, в катакомбах Панфила). С конца IX века посещение римских катакомб, лишившихся привлекавших паломников мощей, практически прекращаются, в XI—XII веках описаны единичные случаи подобных визитов.
Качество видео: HDTVRip 720p

Продолжительность: 00:51:55
Формат: MKV
Видео: AVC (x264), 1280x720, ~4758 kbps
Аудио: русский, одноголосый (профессиональный), AC3 2.0, ~192.00 kbps

Код:

Общее
Уникальный идентификатор : 170537490492016434267865689056088464301 (0x804C5371FA7A497C908CF14F92A49BAD)
Полное имя : D:\The Catacomb Mystery _720p.mkv
Формат : Matroska
Версия формата : Version 4 / Version 2
Размер файла : 1,80 Гбайт
Продолжительность : 51 м.
Режим общего битрейта : Постоянный
Общий поток : 4952 Кбит/сек
Дата кодирования : UTC 2015-10-27 15:45:15
Программа кодирования : mkvmerge v7.3.0 ('Nouages') 64bit built on Oct 22 2014 18:53:34
Библиотека кодирования : libebml v1.3.0 + libmatroska v1.4.1

Видео
Идентификатор : 1
Формат : AVC
Формат/Информация : Advanced Video Codec
Профиль формата : High@L4.1
Параметр CABAC формата : Да
Параметр ReFrames формата : 3 кадра
Идентификатор кодека : V_MPEG4/ISO/AVC
Продолжительность : 51 м.
Вид битрейта : Постоянный
Битрейт : 4758 Кбит/сек
Номинальный битрейт : 5000 Кбит/сек / 5000 Кбит/сек
Ширина : 1280 пикселей
Высота : 720 пикселей
Соотношение сторон : 16:9
Режим частоты кадров : Постоянный
Частота кадров : 25,000 кадров/сек
Стандарт вещания : NTSC
Цветовое пространство : YUV
Субдискретизация насыщенности : 4:2:0
Битовая глубина : 8 бит
Тип развёртки : Прогрессивная
Бит/(Пиксели*Кадры) : 0.207
Размер потока : 1,73 Гбайт (96%)
Библиотека кодирования : x264 core 114
Настройки программы : cabac=1 / ref=3 / deblock=1:0:0 / analyse=0x3:0x113 / me=hex / subme=7 / psy=1 / psy_rd=1.00:0.00 / mixed_ref=1 / me_range=16 / chroma_me=1 / trellis=1 / 8x8dct=1 / cqm=2 / deadzone=21,11 / fast_pskip=1 / chroma_qp_offset=-2 / threads=6 / sliced_threads=0 / slices=1 / nr=0 / decimate=1 / interlaced=0 / constrained_intra=0 / bframes=3 / b_pyramid=0 / b_adapt=1 / b_bias=0 / direct=1 / weightb=1 / open_gop=0 / weightp=2 / keyint=250 / keyint_min=25 / scenecut=40 / intra_refresh=0 / rc_lookahead=40 / rc=cbr / mbtree=1 / bitrate=5000 / ratetol=1.0 / qcomp=0.60 / qpmin=3 / qpmax=69 / qpstep=4 / vbv_maxrate=5000 / vbv_bufsize=4997 / nal_hrd=cbr / ip_ratio=1.40 / aq=1:1.00
Default : Да
Forced : Нет
Цветовой диапазон : Limited
Основные цвета : BT.709
Характеристики трансфера : BT.709
Коэффициенты матрицы : BT.709

Аудио
Идентификатор : 2
Формат : AC-3
Формат/Информация : Audio Coding 3
Расширение режима : CM (complete main)
Параметр Endianness формата : Big
Идентификатор кодека : A_AC3
Продолжительность : 51 м.
Вид битрейта : Постоянный
Битрейт : 192 Кбит/сек
Каналы : 2 канала
Расположение каналов : Front: L R
Частота : 48,0 КГц
Частота кадров : 31,250 кадров/сек (1536 spf)
Метод сжатия : С потерями
Размер потока : 71,3 Мбайт (4%)
Default : Да
Forced : Нет
picpicpicpicpic
Для увеличения картинки щелкните мышкой по превью

Этот торрент недоступен для скачивания без регистрации, однако доступен по публичной magnet-ссылке (источники с публичных трекеров). Перед использованием ссылки прочтите, пожалуйста Пользовательское соглашение, а также как можно дольше оставайтесь на раздаче! Для того, чтобы скачать сам торрент-файл (который видит больше источников), а также для того, чтобы поблагодарить релизера, вам необходимо зарегистрироваться. Если регистрироваться лень - вы можете также попробовать скачать релиз по нашим партнерским ссылкам ниже.

[underverse.su].t69285.torrent
Трекер: Зарегистрирован   [ 20.08.2016 13:35 ]  

Статус: проверено (by makkol at 20.08.2016 15:20)
Поблагодарили: пока никто не поблагодарил...
Тип торрента: публичный - доступные источники с открытых трекеров: 
Размер: 1,8 GB (занимает 0,41 DVDR, для записи нужно 1 болванка DVDR/RW)
 
 

Яндекс.Метрика powered by Sphinx


В Н И М А Н И Е
Сайт не распространяет и не хранит электронные версии произведений, а лишь бесплатно и без коммерческой выгоды (не требуя взамен платы,
SMS и т.д.) предоставляет доступ к создаваемому пользователями каталогу ссылок на торрент-файлы, которые содержат только списки хеш-сумм.
Убедительная просьба с жалобами обращаться напрямую к пользователю, разместившему торрент файл.

Вверх