Loading...
Error

Дикая Иберия / Wild Iberia (1 сезон: 1-4 серии из 4) / (Альваро Мендоза) [2014 г., документальный, природа, флора, фауна, HDTVRip 720p] Dub

Статистика раздачи
Размер:  6,33 GB   |    Зарегистрирован:  3 месяца 13 дней   |    Скачан:  1 раз

Полного источника не было: 3 месяца 9 дней

Сидов:  0  |  0 KB/s  ]   Личеров:  0  |  0 KB/s  ]

* - сиды/пиры с внешних источников

   
 
Автор Сообщение

ARI71 Пол:Муж

20-Авг-2016 08:55

Дикая Иберия / Wild Iberia (1 сезон: 1-4 серии из 4)


Год выпуска: 2014
Жанр: документальный, природа, флора, фауна
Страна: Испания Alvaro Mendoza Production (AMPRODS)
Режиссер: Альваро Мендоза
Сюжет фильма:
Ландшафт на Иберийском полуострове чрезвычайно разнообразен. Здесь есть и джунгли, и пустыни. На севере – снежные шапки Пиренейских гор, на юге – прерии. Эта передача, снятая с использованием высокоскоростных камер и современных методов замедленной съёмки, познакомит с рысью и орлом, муравьиным львом и стрекозой – с дикими обитателями Испании.
Качество видео: HDTVRip 720p

Продолжительность: 4 x ~00:40:08
Формат: MKV
Видео: AVC (x264), 1280x720, ~5000 kbps
Аудио: русский, (дублированный), AC3 2.0, ~192.00 kbps

Код:

Общее
Уникальный идентификатор : 200056798733897321629708613982489842149 (0x968189B58476F538BA525718FD8291E5)
Полное имя : D:\Wild Iberia_720p\01_Spring.mkv
Формат : Matroska
Версия формата : Version 4 / Version 2
Размер файла : 1,58 Гбайт
Продолжительность : 43 м.
Режим общего битрейта : Переменный
Общий поток : 5182 Кбит/сек
Дата кодирования : UTC 2015-05-25 16:19:30
Программа кодирования : mkvmerge v7.9.0 ('Birds') 64bit
Библиотека кодирования : libebml v1.3.1 + libmatroska v1.4.2

Видео
Идентификатор : 2
Формат : AVC
Формат/Информация : Advanced Video Codec
Профиль формата : High@L4.1
Параметр CABAC формата : Да
Параметр ReFrames формата : 3 кадра
Идентификатор кодека : V_MPEG4/ISO/AVC
Продолжительность : 43 м.
Вид битрейта : Переменный
Битрейт : 5000 Кбит/сек
Максимальный битрейт : 8000 Кбит/сек
Ширина : 1280 пикселей
Высота : 720 пикселей
Соотношение сторон : 16:9
Режим частоты кадров : Постоянный
Частота кадров : 25,000 кадров/сек
Стандарт вещания : NTSC
Цветовое пространство : YUV
Субдискретизация насыщенности : 4:2:0
Битовая глубина : 8 бит
Тип развёртки : Прогрессивная
Бит/(Пиксели*Кадры) : 0.217
Размер потока : 1,52 Гбайт (96%)
Библиотека кодирования : x264 core 114
Настройки программы : cabac=1 / ref=3 / deblock=1:0:0 / analyse=0x3:0x113 / me=hex / subme=7 / psy=1 / psy_rd=1.00:0.00 / mixed_ref=1 / me_range=16 / chroma_me=1 / trellis=1 / 8x8dct=1 / cqm=2 / deadzone=21,11 / fast_pskip=1 / chroma_qp_offset=-4 / threads=6 / sliced_threads=0 / slices=1 / nr=0 / decimate=1 / interlaced=0 / constrained_intra=0 / bframes=3 / b_pyramid=0 / b_adapt=1 / b_bias=0 / direct=1 / weightb=1 / open_gop=0 / weightp=2 / keyint=250 / keyint_min=25 / scenecut=40 / intra_refresh=0 / rc_lookahead=40 / rc=2pass / mbtree=1 / bitrate=5000 / ratetol=1.0 / qcomp=0.60 / qpmin=5 / qpmax=69 / qpstep=4 / cplxblur=20.0 / qblur=0.5 / vbv_maxrate=8000 / vbv_bufsize=7995 / nal_hrd=vbr / ip_ratio=1.40 / aq=1:1.00
Default : Да
Forced : Нет
Цветовой диапазон : Limited
Основные цвета : BT.709
Характеристики трансфера : BT.709
Коэффициенты матрицы : BT.709

Аудио
Идентификатор : 1
Формат : AC-3
Формат/Информация : Audio Coding 3
Расширение режима : CM (complete main)
Параметр Endianness формата : Big
Идентификатор кодека : A_AC3
Продолжительность : 43 м.
Вид битрейта : Постоянный
Битрейт : 192 Кбит/сек
Каналы : 2 канала
Расположение каналов : Front: L R
Частота : 48,0 КГц
Частота кадров : 31,250 кадров/сек (1536 spf)
Метод сжатия : С потерями
Размер потока : 60,1 Мбайт (4%)
Default : Да
Forced : Нет
01. Весна / Spring
Солнце согревает землю — и всё возвращается к жизни. Животные выходят из спячки. Весной у них много забот: нужно строить дома на деревьях и готовить норы к появлению потомства.

02. Лето / Summer
За исключением гор и на севере Иберии, почти везде температура составляет более 30 °С, а в некоторых местах на юге даже достигает и 50 °С, в результате чего среди животных царит большая жажда.

03. Осень / Autumn
Леса готовятся уснуть. С первыми дождями появляются грибы. Стаи журавлей, проведя лето на севере, отправляются домой в Испанию.

04. Зима / Winter
Непривычен вид Испании зимой, когда страна покрыта снегом. Горные козлы спускаются в долины. Волки прочёсывают горные склоны, а хищные птицы парят над ними в ожидании ужина.
Документальный дубляж - (АРК ТВ)
Голос рассказчика - полный дубляж
Интервью - слышна оригинальная речь

Текст читал - Денис Некрасов
picpicpicpicpic
Для увеличения картинки щелкните мышкой по превью

Этот торрент недоступен для скачивания без регистрации, однако доступен по публичной magnet-ссылке (источники с публичных трекеров). Перед использованием ссылки прочтите, пожалуйста Пользовательское соглашение, а также как можно дольше оставайтесь на раздаче! Для того, чтобы скачать сам торрент-файл (который видит больше источников), а также для того, чтобы поблагодарить релизера, вам необходимо зарегистрироваться. Если регистрироваться лень - вы можете также попробовать скачать релиз по нашим партнерским ссылкам ниже.

[underverse.su].t69279.torrent
Трекер: Зарегистрирован   [ 20.08.2016 08:55 ]  

Статус: проверено (by makkol at 20.08.2016 10:10)
Поблагодарили: пока никто не поблагодарил...
Тип торрента: публичный - доступные источники с открытых трекеров: 
Размер: 6,33 GB (занимает 1,45 DVDR, для записи нужно 2 болванки DVDR/RW)
 
 
Похожие темы
Форум Тема Автор Торрент Отв. Посл. сооб.
Научно-популярные фильмы Дикая Иберия. Загадка иберийской рыси / Wild Iberia. Mystery of the Lynx (Клаус Файхтенбергер) [2012 г., документальный, научно-познавательный, фауна, флора, HDTVRip 720p] VO ARI71
0 | 0

0 | 521

2

22.08.2016 16:21


Яндекс.Метрика powered by Sphinx


В Н И М А Н И Е
Сайт не распространяет и не хранит электронные версии произведений, а лишь бесплатно и без коммерческой выгоды (не требуя взамен платы,
SMS и т.д.) предоставляет доступ к создаваемому пользователями каталогу ссылок на торрент-файлы, которые содержат только списки хеш-сумм.
Убедительная просьба с жалобами обращаться напрямую к пользователю, разместившему торрент файл.

Вверх