Loading...
Error

Бог не умер 2 / God's Not Dead 2 (Харольд Кронк) [2016 г., драма, HDRip] MVO

Статистика раздачи
Размер:  1,37 GB   |    Зарегистрирован:  3 месяца 14 дней   |    Скачан:  7 раз
Сидов:  1  |  29 KB/s  ]   Личеров:  0  |  0 KB/s  ]

* - сиды/пиры с внешних источников

   
 
Автор Сообщение

makkol Пол:Муж

19-Авг-2016 13:59

Бог не умер 2 / God's Not Dead 2


Год выпуска: 2016
Жанр: драма
Производство: США [Pure Flix Productions]
Режиссер: Харольд Кронк
В ролях: Мария Кэнелс-Баррера, Пэт Бун, Робин Гивенс, Мелисса Джоан Харт, Брэд Хеллер, Эрни Хадсон, Пол Кво, Триша ЛаФаш
Сюжет фильма:
На этот раз речь идёт о развитии любви к Богу в стенах школы. По мнению создателей, имя Иисуса Христа звучит в образовательных заведениях и на площадях всё реже и реже, и если ничего не предпринимать, вскорости его и вовсе позабудут. Поэтому настало время доказать, что «Бог не умер»...

  • Мировая премьера: 1 апреля 2016


Качество видео: HDRip

Продолжительность: 02:00:58
Формат: AVI
Видео: XviD, 720x304 (2.35:1), 23.976 fps, 1416 kbps
Аудио: русский, любительский многоголосый закадровый (Parovoz Production), AC3 2.0, 48 kHz, 192 kbps

Код:

Format                         : AVI
Format/Info                    : Audio Video Interleave
File size                      : 1.37 GiB
Duration                       : 2 h 0 min
Overall bit rate               : 1 617 kb/s
Writing application            : VirtualDubMod 1.5.10.2 (build 2540/release)
Writing library                : VirtualDubMod build 2540/release

Video
ID                             : 0
Format                         : MPEG-4 Visual
Format profile                 : Advanced Simple@L5
Format settings, BVOP          : 2
Format settings, QPel          : No
Format settings, GMC           : No warppoints
Format settings, Matrix        : Custom
Codec ID                       : XVID
Codec ID/Hint                  : XviD
Duration                       : 2 h 0 min
Bit rate                       : 1 416 kb/s
Width                          : 720 pixels
Height                         : 304 pixels
Display aspect ratio           : 2.35:1
Frame rate                     : 23.976 (24000/1001) FPS
Color space                    : YUV
Chroma subsampling             : 4:2:0
Bit depth                      : 8 bits
Scan type                      : Progressive
Compression mode               : Lossy
Bits/(Pixel*Frame)             : 0.270
Stream size                    : 1.20 GiB (88%)
Writing library                : XviD 1.2.1 (UTC 2008-12-04)

Audio
ID                             : 1
Format                         : AC-3
Format/Info                    : Audio Coding 3
Mode extension                 : CM (complete main)
Format settings, Endianness    : Big
Codec ID                       : 2000
Duration                       : 2 h 0 min
Bit rate mode                  : Constant
Bit rate                       : 192 kb/s
Channel(s)                     : 2 channels
Channel positions              : Front: L R
Sampling rate                  : 48.0 kHz
Frame rate                     : 31.250 FPS (1536 spf)
Compression mode               : Lossy
Stream size                    : 166 MiB (12%)
Alignment                      : Split accross interleaves
Interleave, duration           : 42  ms (1.00 video frame)
Interleave, preload duration   : 500  ms
Присутствует реклама


picpicpicpicpic
Для увеличения картинки щелкните мышкой по превью

Этот торрент недоступен для скачивания без регистрации, однако доступен по публичной magnet-ссылке (источники с публичных трекеров). Перед использованием ссылки прочтите, пожалуйста Пользовательское соглашение, а также как можно дольше оставайтесь на раздаче! Для того, чтобы скачать сам торрент-файл (который видит больше источников), а также для того, чтобы поблагодарить релизера, вам необходимо зарегистрироваться. Если регистрироваться лень - вы можете также попробовать скачать релиз по нашим партнерским ссылкам ниже.

[underverse.su].t69259.torrent
Трекер: Зарегистрирован   [ 19.08.2016 13:59 ]  

Статус: T временная (by makkol at 22.08.2016 22:46)
Поблагодарили: 2 человека
Тип торрента: публичный - доступные источники с открытых трекеров: 
Размер: 1,37 GB (занимает 0,31 DVDR, для записи нужно 1 болванка DVDR/RW)
 
 
Похожие темы
Форум Тема Автор Торрент Отв. Посл. сооб.
T Зарубежное кино [HDDVDRip / BDRip / WEB-DL / HDTV 1080/720р] Бог не умер 2 / God's Not Dead 2 (Харольд Кронк) [2016 г., драма, BDRip 720p] MVO makkol
18 | 1

0 | 537

1

19.08.2016 14:10

T Зарубежное кино [HDDVDRip / BDRip / WEB-DL / HDTV 1080/720р] Бог не умер 2 / God's Not Dead 2 (Харольд Кронк) [2016 г., драма, BDRip 1080p] MVO makkol
14 | 0

0 | 573

4

19.08.2016 14:19

Наше кино [HDDVDRip / BDRip / WEB-DL / HDTV 1080/720р] Бог не умер / God's Not Dead (Харольд Кронк / Harold Cronk) [2014, США, Драма, BDRip 720p] VO (Фернатий) + Original (Eng) + Subs (Rus, Eng) uzi2009
0 | 0

0 | 757

13

09.11.2014 21:09


Яндекс.Метрика powered by Sphinx


В Н И М А Н И Е
Сайт не распространяет и не хранит электронные версии произведений, а лишь бесплатно и без коммерческой выгоды (не требуя взамен платы,
SMS и т.д.) предоставляет доступ к создаваемому пользователями каталогу ссылок на торрент-файлы, которые содержат только списки хеш-сумм.
Убедительная просьба с жалобами обращаться напрямую к пользователю, разместившему торрент файл.

Вверх