Loading...
Error

Крутые меры / Bastille Day (Джеймс Уоткинс) [2016 г., боевик, драма, HDRip] MVO

Статистика раздачи
Размер:  1,37 GB   |    Зарегистрирован:  3 месяца 17 дней   |    Скачан:  19 раз
Сидов:  1  |  0 KB/s  ]   Личеров:  0  |  0 KB/s  ]

* - сиды/пиры с внешних источников

   
 
Автор Сообщение

makkol Пол:Муж

19-Авг-2016 11:59

Крутые меры / Bastille Day
«Напарников не выбирают»


Год выпуска: 2016
Жанр: боевик, драма
Производство: Великобритания , Франция , США [StudioCanal, Amazon Prime Instant Video, Anonymous Content]
Режиссер: Джеймс Уоткинс
В ролях: Идрис Эльба, Ричард Мэдден, Келли Райлли, Шарлотта Ле Бон, Анатол Юсеф, Хорхе Леон Мартинес, Хосе Гарсия, Александр Купер, Карл Фаррер
Сюжет фильма:
Ловкий карманник Майкл Мэйсон привлекает внимание полиции и спецслужб, когда крадёт сумку, содержащую гораздо больше, чем просто бумажник. На его след выходит дерзкий и резкий спецагент ЦРУ Шон Брайар. Вдвоем они становятся мишенью тайной преступной организации и в течение суток должны вывести злоумышленников на чистую воду...

  • Мировая премьера: 20 апреля 2016
  • Российская премьера: 28 июля 2016


Качество видео: HDRip

Продолжительность: 01:31:42
Формат: AVI
Видео: XviD, 720x304 (2.35:1), 24.000 fps, 1744 kbps
Аудио: русский, любительский многоголосый закадровый (Parovoz Production), AC3 2.0, 48 kHz, 384 kbps

Код:

Format                         : AVI
Format/Info                    : Audio Video Interleave
File size                      : 1.37 GiB
Duration                       : 1 h 31 min
Overall bit rate               : 2 137 kb/s
Writing application            : VirtualDubMod 1.5.10.2 (build 2540/release)
Writing library                : VirtualDubMod build 2540/release

Video
ID                             : 0
Format                         : MPEG-4 Visual
Format profile                 : Advanced Simple@L5
Format settings, BVOP          : 2
Format settings, QPel          : No
Format settings, GMC           : No warppoints
Format settings, Matrix        : Custom
Codec ID                       : XVID
Codec ID/Hint                  : XviD
Duration                       : 1 h 31 min
Bit rate                       : 1 744 kb/s
Width                          : 720 pixels
Height                         : 304 pixels
Display aspect ratio           : 2.35:1
Frame rate                     : 24.000 FPS
Color space                    : YUV
Chroma subsampling             : 4:2:0
Bit depth                      : 8 bits
Scan type                      : Progressive
Compression mode               : Lossy
Bits/(Pixel*Frame)             : 0.332
Stream size                    : 1.12 GiB (82%)
Writing library                : XviD 1.2.1 (UTC 2008-12-04)

Audio
ID                             : 1
Format                         : AC-3
Format/Info                    : Audio Coding 3
Mode extension                 : CM (complete main)
Format settings, Endianness    : Big
Codec ID                       : 2000
Duration                       : 1 h 31 min
Bit rate mode                  : Constant
Bit rate                       : 384 kb/s
Channel(s)                     : 2 channels
Channel positions              : Front: L R
Sampling rate                  : 48.0 kHz
Frame rate                     : 31.250 FPS (1536 spf)
Compression mode               : Lossy
Stream size                    : 252 MiB (18%)
Alignment                      : Split accross interleaves
Interleave, duration           : 42  ms (1.00 video frame)
Interleave, preload duration   : 500  ms
Присутствует реклама


picpicpicpicpic
Для увеличения картинки щелкните мышкой по превью

Этот торрент недоступен для скачивания без регистрации, однако доступен по публичной magnet-ссылке (источники с публичных трекеров). Перед использованием ссылки прочтите, пожалуйста Пользовательское соглашение, а также как можно дольше оставайтесь на раздаче! Для того, чтобы скачать сам торрент-файл (который видит больше источников), а также для того, чтобы поблагодарить релизера, вам необходимо зарегистрироваться. Если регистрироваться лень - вы можете также попробовать скачать релиз по нашим партнерским ссылкам ниже.

[underverse.su].t69255.torrent
Трекер: Зарегистрирован   [ 19.08.2016 11:59 ]  

Статус: T временная (by makkol at 22.08.2016 22:44)
Поблагодарили: 1 человек
Тип торрента: публичный - доступные источники с открытых трекеров: 
Размер: 1,37 GB (занимает 0,31 DVDR, для записи нужно 1 болванка DVDR/RW)
 
 
Похожие темы
Форум Тема Автор Торрент Отв. Посл. сооб.
Зарубежное кино [DVDRip, Low-Res HDRip, и т.д.] Крутые меры / Bastille Day (Джеймс Уоткинс / James Watkins) [2016 г., боевик, драма, BDRip-AVC] MVO (Paradox & Omskbird records) + AVO (Есарев) + Original (Eng) + Sub (Eng) 90ytr90
460 | 16

0 | 350

2

19.11.2016 20:51

T Зарубежное кино [DVDRip, Low-Res HDRip, и т.д.] Крутые меры / Bastille Day (Джеймс Уоткинс) [2016 г., боевик, драма, HDRip] Dub (Line) makkol
501 | 1

0 | 311

20

07.09.2016 22:36

T Зарубежное кино [DVDRip, Low-Res HDRip, и т.д.] Крутые меры / Bastille Day (Джеймс Уоткинс) [2016 г., боевик, драма, HDRip] Dub (iTunes) makkol
616 | 13

0 | 317

9

09.10.2016 21:37

T Зарубежное кино [DVDRip, Low-Res HDRip, и т.д.] Крутые меры / Bastille Day (Джеймс Уоткинс) [2016 г., боевик, драма, HDRip] Dub (звук с TS) makkol
139 | 0

0 | 380

22

16.08.2016 14:27

T Зарубежное кино [DVDRip, Low-Res HDRip, и т.д.] Крутые меры / Bastille Day (Джеймс Уоткинс / James Watkins) [2016 г., боевик, драма, HDRip] VO (Хихидок) + Sub (Eng) + hardsub (Eng) 90ytr90
122 | 2

1 | 461

11

18.08.2016 18:01

# Зарубежное кино [DVDRip, Low-Res HDRip, и т.д.] Крутые меры / Bastille Day (Джеймс Уоткинс / James Watkins) [2016 г., боевик, драма, HDRip] AVO (Есарев) + hardsub (Eng) 90ytr90
81 | 0

0 | 287

7

01.09.2016 09:00

T Зарубежное кино [HDDVDRip / BDRip / WEB-DL / HDTV 1080/720р] Крутые меры / Bastille Day (Джеймс Уоткинс / James Watkins) [2016 г., боевик, драма, BDRip 720p] Dub (iTunes) + AVO (Д.Есарев) + Original (Eng) + Sub (Eng) 90ytr90
108 | 11

0 | 314

4

19.11.2016 20:58

T Зарубежное кино [HDDVDRip / BDRip / WEB-DL / HDTV 1080/720р] Крутые меры / Bastille Day (Джеймс Уоткинс) [2016 г., боевик, драма, BDRip 1080p] Dub (Line) makkol
102 | 1

0 | 356

6

07.09.2016 22:51

T Зарубежное кино [HDDVDRip / BDRip / WEB-DL / HDTV 1080/720р] Крутые меры / Bastille Day (Джеймс Уоткинс) [2016 г., боевик, драма, BDRip 720p] Dub (Line) makkol
135 | 4

0 | 317

2

07.09.2016 22:43

T Зарубежное кино [HDDVDRip / BDRip / WEB-DL / HDTV 1080/720р] Крутые меры / Bastille Day (Джеймс Уоткинс) [2016 г., боевик, драма, BDRip 720p] MVO makkol
135 | 2

0 | 490

12

19.08.2016 12:17


Яндекс.Метрика powered by Sphinx


В Н И М А Н И Е
Сайт не распространяет и не хранит электронные версии произведений, а лишь бесплатно и без коммерческой выгоды (не требуя взамен платы,
SMS и т.д.) предоставляет доступ к создаваемому пользователями каталогу ссылок на торрент-файлы, которые содержат только списки хеш-сумм.
Убедительная просьба с жалобами обращаться напрямую к пользователю, разместившему торрент файл.

Вверх