Loading...
Error

Полярные приключения / Polar Adventure (Лукас Цяо) [2016 г., мультфильм, комедия, приключения, семейный, WEBRip] Dub (звук с TS)

Статистика раздачи
Размер:  1,37 GB   |    Зарегистрирован:  3 месяца 20 дней   |    Скачан:  4 раза

Полного источника не было: 7 часов

Сидов:  0  |  0 KB/s  ]   Личеров:  0  |  0 KB/s  ]

* - сиды/пиры с внешних источников

   
 
Автор Сообщение

makkol Пол:Муж

18-Авг-2016 22:57

Полярные приключения / Polar Adventure
«Самое освежающее путешествие»


Год выпуска: 2016
Жанр: мультфильм, комедия, приключения, семейный
Производство: Китай [Ori Animation]
Режиссер: Лукас Цяо
Сюжет фильма:
Однажды в самое сердце мирной Антарктиды пришла беда. Жизнь Белого континента и его обитателей под угрозой гибели. Чтобы спасти пингвинов и защитить свой дом, маленькие друзья мужественно кидаются в бой. Дружба сделает их сильными. И ничто не сможет их остановить!

  • Мировая премьера: 1 октября 2015
  • Российская премьера: 4 августа 2016


Качество видео: WEBRip

Продолжительность: 01:34:31
Формат: AVI
Видео: XviD, 720x400 (16:9), 25.000 fps, 1677 kbps
Аудио: русский, дублированный (звук с TS), AC3 2.0, 48 kHz, 384 kbps
Субтитры: китайские вшитые неотключаемые

Код:

Format                         : AVI
Format/Info                    : Audio Video Interleave
File size                      : 1.37 GiB
Duration                       : 1 h 34 min
Overall bit rate               : 2 070 kb/s
Writing application            : VirtualDubMod 1.5.10.2 (build 2540/release)
Writing library                : VirtualDubMod build 2540/release

Video
ID                             : 0
Format                         : MPEG-4 Visual
Format profile                 : Advanced Simple@L5
Format settings, BVOP          : 2
Format settings, QPel          : No
Format settings, GMC           : No warppoints
Format settings, Matrix        : Custom
Codec ID                       : XVID
Codec ID/Hint                  : XviD
Duration                       : 1 h 34 min
Bit rate                       : 1 677 kb/s
Width                          : 720 pixels
Height                         : 400 pixels
Display aspect ratio           : 16:9
Frame rate                     : 25.000 FPS
Color space                    : YUV
Chroma subsampling             : 4:2:0
Bit depth                      : 8 bits
Scan type                      : Progressive
Compression mode               : Lossy
Bits/(Pixel*Frame)             : 0.233
Stream size                    : 1.11 GiB (81%)
Writing library                : XviD 1.2.1 (UTC 2008-12-04)

Audio
ID                             : 1
Format                         : AC-3
Format/Info                    : Audio Coding 3
Mode extension                 : CM (complete main)
Format settings, Endianness    : Big
Codec ID                       : 2000
Duration                       : 1 h 34 min
Bit rate mode                  : Constant
Bit rate                       : 384 kb/s
Channel(s)                     : 2 channels
Channel positions              : Front: L R
Sampling rate                  : 48.0 kHz
Frame rate                     : 31.250 FPS (1536 spf)
Compression mode               : Lossy
Stream size                    : 260 MiB (19%)
Alignment                      : Split accross interleaves
Interleave, duration           : 40  ms (1.00 video frame)
Interleave, preload duration   : 500  ms
Присутствует реклама


picpicpicpicpic
Для увеличения картинки щелкните мышкой по превью

Этот торрент недоступен для скачивания без регистрации, однако доступен по публичной magnet-ссылке (источники с публичных трекеров). Перед использованием ссылки прочтите, пожалуйста Пользовательское соглашение, а также как можно дольше оставайтесь на раздаче! Для того, чтобы скачать сам торрент-файл (который видит больше источников), а также для того, чтобы поблагодарить релизера, вам необходимо зарегистрироваться. Если регистрироваться лень - вы можете также попробовать скачать релиз по нашим партнерским ссылкам ниже.

[underverse.su].t69252.torrent
Трекер: Зарегистрирован   [ 18.08.2016 22:57 ]  

Статус: T временная (by makkol at 22.08.2016 22:43)
Поблагодарили: пока никто не поблагодарил...
Тип торрента: публичный - доступные источники с открытых трекеров: 
Размер: 1,37 GB (занимает 0,31 DVDR, для записи нужно 1 болванка DVDR/RW)
 
 
Похожие темы
Форум Тема Автор Торрент Отв. Посл. сооб.
T Зарубежные мультфильмы Полярные приключения / Polar Adventure (Лукас Цяо / Lucas Qiao) [2015 г., мультфильм, комедия, приключения, семейный, полнометражный, WEB-DLRip] Dub (iTunes) 90ytr90
33 | 4

0 | 390

1

25.11.2016 19:10

T Зарубежные мультфильмы Полярные приключения / Polar Adventure (Лукас Цяо) [2016 г., мультфильм, комедия, приключения, семейный, WEB-DLRip] Dub (iTunes) makkol
8 | 0

0 | 62

6

18.11.2016 13:10

T Мультфильмы [HDDVDRip / BDRip / WEB-DL / HDTV 1080/720р] Полярные приключения / Polar Adventure (Лукас Цяо) [2016 г., мультфильм, комедия, приключения, семейный, WEB-DL 720p] Dub (iTunes) makkol
2 | 0

0 | 67

3

18.11.2016 13:16


Яндекс.Метрика powered by Sphinx


В Н И М А Н И Е
Сайт не распространяет и не хранит электронные версии произведений, а лишь бесплатно и без коммерческой выгоды (не требуя взамен платы,
SMS и т.д.) предоставляет доступ к создаваемому пользователями каталогу ссылок на торрент-файлы, которые содержат только списки хеш-сумм.
Убедительная просьба с жалобами обращаться напрямую к пользователю, разместившему торрент файл.

Вверх