Loading...
Error

Гении древнего мира / Genius Ancient World (1-3 серии из 3) / (Роб Говлинг) [2015 г., документальный, история, исследования, HDTVRip] Dub

Статистика раздачи
Размер:  2,33 GB   |    Зарегистрирован:  3 месяца 20 дней   |    Скачан:  7 раз
Сидов:  2  |  0 KB/s  ]   Личеров:  0  |  0 KB/s  ]

* - сиды/пиры с внешних источников

   
 
Автор Сообщение

ARI71 Пол:Муж

18-Авг-2016 17:37

Гении древнего мира / Genius Ancient World (1-3 серии из 3)


Год выпуска: 2015
Жанр: документальный, история, исследования
Страна: Великобритания ВВС Open University Partnership, Religion & Ethics Production Salford
Режиссер: Роб Говлинг
Ведущая: Бетани Хьюз
Сюжет фильма:
Историк Бетани Хьюз отправляется в путешествие по Индии, Греции и Китаю, по следам трёх великих философов древних времён: Будды, Сократа и Конфуция. Все они проходили огромные расстояния, погружаясь в размышления во время своих путешествий. Благодаря Бетани мы узнаем кое-что новое об этих великих мыслителях, живших в V веке до н.э. и о том, как они повлияли на современный образ мышления.
Качество видео: HDTVRip

Продолжительность: 3 x ~ 00:59:00
Формат: AVI
Видео: XviD, 720x400, 1700 kbps
Аудио: русский, (дублированный), AC3 2.0, 192.00 kbps
(тех. данные всех серий идентичны)

Код:

Общее
Полное имя : D:\BBC_Genius_Ancient World.HDTVRip.by RockeT [Virtus & KazTorrentS]\01_Buddha.HDTVRip.by RockeT [Virtus & KazTorrentS].avi
Формат : AVI
Формат/Информация : Audio Video Interleave
Размер файла : 796 Мбайт
Продолжительность : 58 м.
Общий поток : 1902 Кбит/сек
Программа кодирования : VirtualDubMod 1.5.10.3 | www.virtualdub-fr.org || (build 2550/release)
Библиотека кодирования : VirtualDubMod build 2550/release

Видео
Идентификатор : 0
Формат : MPEG-4 Visual
Профиль формата : Advanced Simple@L5
Параметр BVOP формата : 1
Параметр QPel формата : Нет
Параметр GMC формата : Без точки перехода
Параметр матрицы формата : Default (MPEG)
Идентификатор кодека : XVID
Идентификатор кодека/Подсказка : XviD
Продолжительность : 58 м.
Битрейт : 1700 Кбит/сек
Ширина : 720 пикселей
Высота : 400 пикселей
Соотношение сторон : 16:9
Частота кадров : 25,000 кадров/сек
Цветовое пространство : YUV
Субдискретизация насыщенности : 4:2:0
Битовая глубина : 8 бит
Тип развёртки : Прогрессивная
Метод сжатия : С потерями
Бит/(Пиксели*Кадры) : 0.236
Размер потока : 712 Мбайт (89%)
Библиотека кодирования : XviD 1.2.1 (UTC 2008-12-04)

Аудио
Идентификатор : 1
Формат : AC-3
Формат/Информация : Audio Coding 3
Расширение режима : CM (complete main)
Параметр Endianness формата : Big
Идентификатор кодека : 2000
Продолжительность : 58 м.
Вид битрейта : Постоянный
Битрейт : 192 Кбит/сек
Каналы : 2 канала
Расположение каналов : Front: L R
Частота : 48,0 КГц
Частота кадров : 31,250 кадров/сек (1536 spf)
Метод сжатия : С потерями
Размер потока : 80,4 Мбайт (10%)
Выравнивание : Разделение по промежуткам
Продолжительность промежутка : 40 мс. (1,00 видеокадр)
Время предзагрузки промежутка : 500 мс.
01. Будда / Buddha
Бетани Хьюз отправляется в Индию, чтобы подробнее узнать о революционных идеях Будды.

02. Сократ / Socrates
Бетани Хьюз направляется в Грецию, туда, где жил Сократ, инакомыслящий философ, серьёзно повлиявший на восприятие мира.

03. Конфуций / Confucius
Следующая остановка Бетани Хьюз - Китай, место, где жил и делился мудростью великий китайский мыслитель Конфуций.
Документальный дубляж - "SDI Media"
Голос рассказчика - полный дубляж
Интервью - слышна оригинальная речь

Перевод: Марина Михалченкова, текст читает Виктория Бабанова
picpicpicpicpic
Для увеличения картинки щелкните мышкой по превью

Этот торрент недоступен для скачивания без регистрации, однако доступен по публичной magnet-ссылке (источники с публичных трекеров). Перед использованием ссылки прочтите, пожалуйста Пользовательское соглашение, а также как можно дольше оставайтесь на раздаче! Для того, чтобы скачать сам торрент-файл (который видит больше источников), а также для того, чтобы поблагодарить релизера, вам необходимо зарегистрироваться. Если регистрироваться лень - вы можете также попробовать скачать релиз по нашим партнерским ссылкам ниже.

[underverse.su].t69241.torrent
Трекер: Зарегистрирован   [ 18.08.2016 17:37 ]  

Статус: проверено (by 90ytr90 at 18.08.2016 20:14)
Поблагодарили: пока никто не поблагодарил...
Тип торрента: публичный - доступные источники с открытых трекеров: 
Размер: 2,33 GB (занимает 0,53 DVDR, для записи нужно 1 болванка DVDR/RW)
 
 
Похожие темы
Форум Тема Автор Торрент Отв. Посл. сооб.
BBC Гении древнего мира / Genius Ancient World (1-3 серии из 3) / (Роб Говлинг) [2015 г., документальный, история, исследования, HDTVRip 720p] Dub + Original ARI71
1 | 0

1 | 1047

4

29.07.2016 09:14


Яндекс.Метрика powered by Sphinx


В Н И М А Н И Е
Сайт не распространяет и не хранит электронные версии произведений, а лишь бесплатно и без коммерческой выгоды (не требуя взамен платы,
SMS и т.д.) предоставляет доступ к создаваемому пользователями каталогу ссылок на торрент-файлы, которые содержат только списки хеш-сумм.
Убедительная просьба с жалобами обращаться напрямую к пользователю, разместившему торрент файл.

Вверх