Loading...
Error

Тайная жизнь европейских млекопитающих: Страж сада - ёж / The Secret Life Of European Mammals: The Garden Warrior - The Hedgehog (Николя Груа) [2007 г., документальный, флора, фауна, TVRip] VO

Статистика раздачи
Размер:  614 MB   |    Зарегистрирован:  3 месяца 23 дня   |    Скачан:  2 раза

Полного источника не было: 3 месяца 19 дней

Сидов:  0  |  0 KB/s  ]   Личеров:  0  |  0 KB/s  ]

* - сиды/пиры с внешних источников

   
 
Автор Сообщение

ARI71 Пол:Муж

17-Авг-2016 20:49

Тайная жизнь европейских млекопитающих: Страж сада - ёж / The Secret Life Of European Mammals: The Garden Warrior - The Hedgehog


Год выпуска: 2007
Жанр: документальный, флора, фауна
Страна: Франция Beta Production, Greenspace Productions
Режиссер: Николя Груа
Сюжет фильма:
Французский документальный проект "Страж сада - ёж". Перед вами одна из частей документального цикла "Тайная жизнь млекопитающих". Документалисты из Франции нашли в жизни ежа столько интересного, что провели целый год в наблюдениях. Ночью и днем съемочная группа Николя Груа преследовала ежика. В летние ночи еж отправляется в сад, где лакомится личинками и червячками. Также у вас будет возможность понаблюдать, как ежики ухаживают за самками, проводят брачный период и дают потомство.
Качество видео: TVRip

Продолжительность: 00:52:22
Формат: AVI
Видео: DivX 4, 640x464, 1499 kbps
Аудио: русский, одноголосый (профессиональный), MP3 2.0, 128.00 kbps

Код:

Общее
Полное имя : D:\Taynaja.zhizn.evropeyskih.mlekopitajushih.strazh.sada.ezh.2007.DivX.TVRip.avi
Формат : AVI
Формат/Информация : Audio Video Interleave
Размер файла : 614 Мбайт
Продолжительность : 52 м.
Общий поток : 1640 Кбит/сек

Видео
Идентификатор : 0
Формат : MPEG-4 Visual
Профиль формата : Advanced Simple@L1
Параметр BVOP формата : 2
Параметр QPel формата : Нет
Параметр GMC формата : Без точки перехода
Параметр матрицы формата : Default (H.263)
Идентификатор кодека : DIVX
Идентификатор кодека/Информация : Project Mayo
Идентификатор кодека/Подсказка : DivX 4
Продолжительность : 52 м.
Битрейт : 1499 Кбит/сек
Ширина : 640 пикселей
Высота : 464 пикселя
Соотношение сторон : 4:3
Частота кадров : 25,000 кадров/сек
Цветовое пространство : YUV
Субдискретизация насыщенности : 4:2:0
Битовая глубина : 8 бит
Тип развёртки : Прогрессивная
Метод сжатия : С потерями
Бит/(Пиксели*Кадры) : 0.202
Размер потока : 562 Мбайт (91%)
Библиотека кодирования : Lavc50.0.0

Аудио
Идентификатор : 1
Формат : MPEG Audio
Версия формата : Version 1
Профиль формата : Layer 3
Режим : Joint stereo
Расширение режима : MS Stereo
Идентификатор кодека : 55
Идентификатор кодека/Подсказка : MP3
Продолжительность : 52 м.
Вид битрейта : Постоянный
Битрейт : 128 Кбит/сек
Каналы : 2 канала
Частота : 48,0 КГц
Метод сжатия : С потерями
Размер потока : 47,9 Мбайт (8%)
Выравнивание : Соединение по промежуткам
Продолжительность промежутка : 24 мс. (0,60 видеокадр)
Библиотека кодирования : LAME3.96.1
picpicpicpicpic
Для увеличения картинки щелкните мышкой по превью

Этот торрент недоступен для скачивания без регистрации, однако доступен по публичной magnet-ссылке (источники с публичных трекеров). Перед использованием ссылки прочтите, пожалуйста Пользовательское соглашение, а также как можно дольше оставайтесь на раздаче! Для того, чтобы скачать сам торрент-файл (который видит больше источников), а также для того, чтобы поблагодарить релизера, вам необходимо зарегистрироваться. Если регистрироваться лень - вы можете также попробовать скачать релиз по нашим партнерским ссылкам ниже.

[underverse.su].t69196.torrent
Трекер: Зарегистрирован   [ 17.08.2016 20:49 ]  

Статус: проверено (by makkol at 17.08.2016 23:12)
Поблагодарили: пока никто не поблагодарил...
Тип торрента: публичный - доступные источники с открытых трекеров: 
Размер: 614 MB (занимает 0,14 DVDR, для записи нужно 1 болванка DVDR/RW)
 
 
Похожие темы
Форум Тема Автор Торрент Отв. Посл. сооб.
T Зарубежные мультфильмы Тайная жизнь домашних животных / The Secret Life of Pets (Ярроу Чейни / Yarrow Cheney, Крис Рено / Chris Renaud) [2016 г., мультфильм, комедия, семейный, BDRip-AVC] Dub (iTunes) + Sub (Rus) 90ytr90
187 | 13

0 | 181

9

17.11.2016 08:21

T Зарубежные мультфильмы Тайная жизнь домашних животных / The Secret Life of Pets (Ярроу Чейни / Yarrow Cheney, Крис Рено / Chris Renaud) [2016 г., мультфильм, комедия, семейный, BDRip-AVC] Dub (iTunes) + Original (Eng) +... 90ytr90
362 | 20

0 | 173

5

17.11.2016 08:21

T Зарубежные мультфильмы Тайная жизнь домашних животных / The Secret Life of Pets (Ярроу Чейни / Yarrow Cheney, Крис Рено / Chris Renaud) [2016 г., мультфильм, комедия, семейный, BDRip] Dub (iTunes) + Sub (Rus) 90ytr90
10 | 3

0 | 171

0

16.11.2016 20:57

T Зарубежные мультфильмы Тайная жизнь домашних животных / The Secret Life of Pets (Ярроу Чейни / Yarrow Cheney, Крис Рено / Chris Renaud) [2016 г., мультфильм, комедия, семейный, BDRip] Dub (iTunes) + Sub (Rus) 90ytr90
293 | 24

0 | 196

2

16.11.2016 20:54

T Зарубежные мультфильмы Тайная жизнь домашних животных / The Secret Life of Pets (Ярроу Чейни, Крис Рено) [2016 г., мультфильм, комедия, семейный, HDRip] Dub (Line) makkol
1 | 0

0 | 79

9

05.11.2016 21:23

% Зарубежные мультфильмы Тайная жизнь домашних животных / The Secret Life of Pets (Ярроу Чейни / Yarrow Cheney, Крис Рено / Chris Renaud) [2016 г., мультфильм, комедия, семейный, HDTVRip] Dub (чистый звук) + hardsub (Kor) 90ytr90
2700 | 27

0 | 478

38

05.09.2016 14:18

T Зарубежные мультфильмы Тайная жизнь домашних животных / The Secret Life of Pets (Ярроу Чейни / Yarrow Cheney, Крис Рено / Chris Renaud) [2016 г., мультфильм, комедия, семейный, TS] Dub (чистый звук) 90ytr90
563 | 5

0 | 830

45

22.08.2016 15:39

T Зарубежные мультфильмы Тайная жизнь домашних животных / The Secret Life of Pets (Ярроу Чейни, Крис Рено) [2016 г., мультфильм, комедия, семейный, HDTVRip] Dub (Line) makkol
3 | 0

0 | 572

57

01.09.2016 13:02

BBC Тайная жизнь мошкары / The Secret Life of Midges (Колин Мюррей) [2015 г., документальный, научно-познавательный, HDTVRip 720p] Dub ARI71
2 | 0

0 | 744

5

30.06.2016 09:48

Научно-популярные фильмы Тайная жизнь Eвропейских млекопитающих: История Волка / The Secret Life Of European Mammals: The Wolf's Story [2003 г., документальный, TVRip] VO ARI71
0 | 0

0 | 554

1

24.08.2015 19:43


Яндекс.Метрика powered by Sphinx


В Н И М А Н И Е
Сайт не распространяет и не хранит электронные версии произведений, а лишь бесплатно и без коммерческой выгоды (не требуя взамен платы,
SMS и т.д.) предоставляет доступ к создаваемому пользователями каталогу ссылок на торрент-файлы, которые содержат только списки хеш-сумм.
Убедительная просьба с жалобами обращаться напрямую к пользователю, разместившему торрент файл.

Вверх