Loading...
Error

Дикая Америка c Кейси Андерсоном / America The Wild (America The Wild with Casey Anderson) / (2 сезон: 1-6 серий из 6) [2011 г., документальный, путешествие, флора, фауна, HDTVRip 720p] Dub

Статистика раздачи
Размер:  8,42 GB   |    Зарегистрирован:  3 месяца 18 дней   |    Скачан:  0 раз

Полного источника не было: Никогда

Сидов:  0  |  0 KB/s  ]   Личеров:  0  |  0 KB/s  ]

* - сиды/пиры с внешних источников

   
 
Автор Сообщение

ARI71 Пол:Муж

17-Авг-2016 20:09

Дикая Америка c Кейси Андерсоном / America The Wild (America The Wild with Casey Anderson) / (2 сезон: 1-6 серий из 6)


Год выпуска: 2011
Жанр: документальный, путешествие, флора, фауна
Страна: США National Geographic Channel, Grizzly Creek Films, LLC
В ролях: Кейси Андерсон
Сюжет фильма:
Во втором сезоне мы продолжим наблюдать за захватывающими приключениями исследователя и натуралиста Кейси Андерсона в условиях дикой природы. Вместе с ним мы отправимся в шесть потрясающих экспедиций, от которых захватывает дух: он разобьет лагерь на диком острове, чтобы исследовать волков, войдет в пещеру в поисках летучих мышей-вампиров, столкнется лицом к лицу со стадами гигантских лосей Аляски, проложит свой путь через воды, полные аллигаторов, в национальном парке Эверглейдс во Флориде, с вертолета посмотрит на схватку между бараном и горным львом и, наконец, попадет в самое сердце тьмы – в ночной мир Йеллоустонских Гризли.
Качество видео: HDTVRip 720p

Продолжительность: 6 х ~ 00:45:00
Формат: MKV
Видео: AVC (x264), 1280x720, ~4300 kbps
Аудио: русский, (дублированный), AC3 2.0, 192.00 kbps
(тех. данные всех серий идентичны)

Код:

Общее
Уникальный идентификатор : 242692301085714631343978013634391553520 (0xB694D64531C1408F98670B3654C1B5F0)
Полное имя : D:\America The Wild S02 2011 HDTVRip 720р_Fandorin\America The Wild s02e01 Stalking the Mountain Lion HDTVRip 720p_Fandorin.mkv
Формат : Matroska
Версия формата : Version 1
Размер файла : 1,41 Гбайт
Продолжительность : 44 м.
Общий поток : 4491 Кбит/сек
Дата кодирования : UTC 2012-08-25 10:19:33
Программа кодирования : mkvmerge v2.1.0 ('Another Place To Fall') built on Aug 19 2007 13:40:07
Библиотека кодирования : libebml v0.7.7 + libmatroska v0.8.1

Видео
Идентификатор : 1
Формат : AVC
Формат/Информация : Advanced Video Codec
Профиль формата : High@L4.1
Параметр CABAC формата : Да
Параметр ReFrames формата : 5 кадров
Идентификатор кодека : V_MPEG4/ISO/AVC
Продолжительность : 44 м.
Битрейт : 4300 Кбит/сек
Ширина : 1280 пикселей
Высота : 720 пикселей
Соотношение сторон : 16:9
Режим частоты кадров : Постоянный
Частота кадров : 25,000 кадров/сек
Цветовое пространство : YUV
Субдискретизация насыщенности : 4:2:0
Битовая глубина : 8 бит
Тип развёртки : Прогрессивная
Бит/(Пиксели*Кадры) : 0.187
Размер потока : 1,32 Гбайт (94%)
Заголовок : Rip by Fandorin [*другой трекер*]
Библиотека кодирования : x264 core 98 r1649 20cbe10
Настройки программы : cabac=1 / ref=5 / deblock=1:-3:-3 / analyse=0x3:0x133 / me=umh / subme=10 / psy=1 / psy_rd=1.00:0.10 / mixed_ref=1 / me_range=48 / chroma_me=1 / trellis=2 / 8x8dct=1 / cqm=0 / deadzone=21,11 / fast_pskip=0 / chroma_qp_offset=-3 / threads=6 / sliced_threads=0 / nr=0 / decimate=1 / interlaced=0 / constrained_intra=0 / bframes=3 / b_pyramid=2 / b_adapt=2 / b_bias=0 / direct=3 / weightb=1 / weightp=2 / keyint=250 / keyint_min=25 / scenecut=40 / intra_refresh=0 / rc_lookahead=40 / rc=2pass / mbtree=1 / bitrate=4300 / ratetol=1.0 / qcomp=0.60 / qpmin=10 / qpmax=51 / qpstep=4 / cplxblur=20.0 / qblur=0.5 / ip_ratio=1.40 / aq=1:1.00
Default : Да
Forced : Нет

Аудио
Идентификатор : 2
Формат : AC-3
Формат/Информация : Audio Coding 3
Расширение режима : CM (complete main)
Параметр Endianness формата : Big
Идентификатор кодека : A_AC3
Продолжительность : 44 м.
Вид битрейта : Постоянный
Битрейт : 192 Кбит/сек
Каналы : 2 канала
Расположение каналов : Front: L R
Частота : 48,0 КГц
Частота кадров : 31,250 кадров/сек (1536 spf)
Метод сжатия : С потерями
Размер потока : 61,8 Мбайт (4%)
Заголовок : Документальный дубляж
Язык : Russian
Default : Да
Forced : Нет
Документальный дубляж от студии - АРК·ТВ
Голос рассказчика - полный дубляж
Интервью - слышна оригинальная речь
1. По следам пумы / Stalking the Mountain Lion: Натуралист Кейси Андерсон отправляется на поиски неуловимых пум, надеясь заснять этих "призраков Скалистых гор" с помощью специальной аппаратуры.

2. Король росомах / Wolverine King: Кейси Андерсон отправляется в заснеженный край Аляски и Британской Колумбии, где знакомится с выращенной в неволе росомахой по кличке Джаспер.

3. Сафари в Гранд-Каньоне / Grand Canyon Safari: Кейси Андерсон путешествует по безлюдной дикой местности, учась навыкам выживания у редких и находящихся на грани исчезновения животных.

4. Падальщики Йелоустоуна / Yellowstone Scavengers: Кейси Андерсон выслеживает падальщиков Йеллоустоуна, знакомя зрителей с редкими и исчезающими видами, некоторые из которых смертельно опасны.

5. Нашествие барибалов / Black Bear Invasion: Кейси учит медвежонка барибала ходить, плавать, лазить по деревьям и добывать пищу, а затем ищет его родственников в дикой местности штата Мэн.

6. Гризли против белого медведя / Grizzly vs. Polar Bear: Кейси выясняет, почему два вида медведей, которые раньше всегда жили в разных климатических зонах и имели разные повадки, стали появляться рядом.
Релиз группы:

picpicpicpicpic
Для увеличения картинки щелкните мышкой по превью

Этот торрент недоступен для скачивания без регистрации, однако доступен по публичной magnet-ссылке (источники с публичных трекеров). Перед использованием ссылки прочтите, пожалуйста Пользовательское соглашение, а также как можно дольше оставайтесь на раздаче! Для того, чтобы скачать сам торрент-файл (который видит больше источников), а также для того, чтобы поблагодарить релизера, вам необходимо зарегистрироваться. Если регистрироваться лень - вы можете также попробовать скачать релиз по нашим партнерским ссылкам ниже.

[underverse.su].t69191.torrent
Трекер: Зарегистрирован   [ 17.08.2016 20:09 ]  

Статус: проверено (by makkol at 17.08.2016 23:13)
Поблагодарили: пока никто не поблагодарил...
Тип торрента: публичный - доступные источники с открытых трекеров: 
Размер: 8,42 GB (занимает 1,92 DVDR, для записи нужно 2 болванки DVDR/RW)
 
 
Похожие темы
Форум Тема Автор Торрент Отв. Посл. сооб.
National Geographic Дикая Америка c Кейси Андерсоном / America The Wild America The Wild with Casey Anderson (2 сезон: 1-6 серий из 6) [2011 г., документальный, флора, фауна, HDTVRip] Dub ARI71
0 | 0

0 | 401

1

09.08.2016 17:02


Яндекс.Метрика powered by Sphinx


В Н И М А Н И Е
Сайт не распространяет и не хранит электронные версии произведений, а лишь бесплатно и без коммерческой выгоды (не требуя взамен платы,
SMS и т.д.) предоставляет доступ к создаваемому пользователями каталогу ссылок на торрент-файлы, которые содержат только списки хеш-сумм.
Убедительная просьба с жалобами обращаться напрямую к пользователю, разместившему торрент файл.

Вверх