Loading...
Error

Найджел Марвен и его индюшки / My Family and Other Turkeys with Nigel Marven (Алекс Минтон) [2014 г., документальный, познавательный, фауна, SatRip] VO

Статистика раздачи
Размер:  621 MB   |    Зарегистрирован:  3 месяца 21 день   |    Скачан:  1 раз

Полного источника не было: 3 месяца 20 дней

Сидов:  0  |  0 KB/s  ]   Личеров:  1  |  0 KB/s  ]

* - сиды/пиры с внешних источников

   
 
Автор Сообщение

ARI71 Пол:Муж

16-Авг-2016 21:20

Найджел Марвен и его индюшки / My Family and Other Turkeys with Nigel Marven


Год выпуска: 2014
Жанр: документальный, познавательный, фауна
Страна: Великобритания Image Imact LTD
Режиссер: Алекс Минтон
В ролях: Найджел Марвен
Сюжет фильма:
Британский телеведущий и натуралист Найджел Марвен не понаслышке знает об индейках, ведь он разводит их у себя дома. В этой программе он расскажет о поведении этих необычных птиц. Мы также узнаем историю о том, как коренные американцы открыли для себя индюшек, и почему эти птицы имели огромное значение в жизни человека на протяжении многих веков.
Качество видео: SatRip

Продолжительность: 00:43:36
Формат: AVI
Видео: XviD, 704x400, 1794 kbps
Аудио: русский, одноголосый (профессиональный), AC3 2.0, 192.00 kbps

Код:

Общее
Полное имя : D:\My Family and Other Turkeys with Nigel Marven.avi
Формат : AVI
Формат/Информация : Audio Video Interleave
Размер файла : 621 Мбайт
Продолжительность : 43 м.
Общий поток : 1993 Кбит/сек
Программа кодирования : TMPGEnc Video Mastering Works 5 Version. 5.0.6.38
Библиотека кодирования : TMPGEnc Video Mastering Works 5 Version. 5.0.6.38

Видео
Идентификатор : 0
Формат : MPEG-4 Visual
Профиль формата : Advanced Simple@L5
Параметр BVOP формата : 2
Параметр QPel формата : Нет
Параметр GMC формата : Без точки перехода
Параметр матрицы формата : Default (H.263)
Режим смешивания : Сжатый битовый поток
Идентификатор кодека : XVID
Идентификатор кодека/Подсказка : XviD
Продолжительность : 43 м.
Битрейт : 1794 Кбит/сек
Ширина : 704 пикселя
Высота : 400 пикселей
Соотношение сторон : 16:9
Частота кадров : 25,000 кадров/сек
Цветовое пространство : YUV
Субдискретизация насыщенности : 4:2:0
Битовая глубина : 8 бит
Тип развёртки : Прогрессивная
Метод сжатия : С потерями
Бит/(Пиксели*Кадры) : 0.255
Размер потока : 559 Мбайт (90%)
Библиотека кодирования : XviD 73

Аудио
Идентификатор : 1
Формат : AC-3
Формат/Информация : Audio Coding 3
Расширение режима : CM (complete main)
Параметр Endianness формата : Big
Идентификатор кодека : 2000
Продолжительность : 43 м.
Вид битрейта : Постоянный
Битрейт : 192 Кбит/сек
Каналы : 2 канала
Расположение каналов : Front: L R
Частота : 48,0 КГц
Частота кадров : 31,250 кадров/сек (1536 spf)
Метод сжатия : С потерями
Размер потока : 59,9 Мбайт (10%)
Выравнивание : Соединение по промежуткам
Продолжительность промежутка : 480 мс. (12,00 видеокадров)
picpicpicpicpic
Для увеличения картинки щелкните мышкой по превью

Этот торрент недоступен для скачивания без регистрации, однако доступен по публичной magnet-ссылке (источники с публичных трекеров). Перед использованием ссылки прочтите, пожалуйста Пользовательское соглашение, а также как можно дольше оставайтесь на раздаче! Для того, чтобы скачать сам торрент-файл (который видит больше источников), а также для того, чтобы поблагодарить релизера, вам необходимо зарегистрироваться. Если регистрироваться лень - вы можете также попробовать скачать релиз по нашим партнерским ссылкам ниже.

[underverse.su].t69157.torrent
Трекер: Зарегистрирован   [ 16.08.2016 21:20 ]  

Статус: проверено (by makkol at 16.08.2016 22:47)
Поблагодарили: 1 человек
Тип торрента: публичный - доступные источники с открытых трекеров: 
Размер: 621 MB (занимает 0,14 DVDR, для записи нужно 1 болванка DVDR/RW)
 
 
Похожие темы
Форум Тема Автор Торрент Отв. Посл. сооб.
Научно-популярные фильмы Найджел Марвен - путешествие в Юньнань / Yunnan Adventure with Nigel Marven [2012 г., документальный, флора, фауна, SatRip] VO ARI71
1 | 0

0 | 353

6

13.02.2016 17:46


Яндекс.Метрика powered by Sphinx


В Н И М А Н И Е
Сайт не распространяет и не хранит электронные версии произведений, а лишь бесплатно и без коммерческой выгоды (не требуя взамен платы,
SMS и т.д.) предоставляет доступ к создаваемому пользователями каталогу ссылок на торрент-файлы, которые содержат только списки хеш-сумм.
Убедительная просьба с жалобами обращаться напрямую к пользователю, разместившему торрент файл.

Вверх