Loading...
Error

Гении и злодеи уходящей эпохи. Эрнст Неизвестный (Юлия Маврина) [2010 г., документальный, биография, искусство, TVRip]

Статистика раздачи
Размер:  360 MB   |    Зарегистрирован:  3 месяца 22 дня   |    Скачан:  0 раз

Полного источника не было: Никогда

Сидов:  0  |  0 KB/s  ]   Личеров:  0  |  0 KB/s  ]

* - сиды/пиры с внешних источников

   
 
Автор Сообщение

ARI71 Пол:Муж

16-Авг-2016 19:57

Гении и злодеи уходящей эпохи. Эрнст Неизвестный


Год выпуска: 2010
Жанр: документальный, биография, искусство
Страна: Россия ООО "Цивилизация НЕО"
Режиссер: Юлия Маврина
Ведущий: Лев Николаев
Сюжет фильма:
Гении и злодеи. Кому обязано человечество нынешним своим существованием в третьем тысячелетии? Гениям или злодеям? Чей вклад больше? Чье влияние сильнее? Отчего «магнитное поле» первых так привлекает вторых? Зависть или объективная необходимость? Страшный вопрос: как связаны гениальность и злодейство и насколько допустимо думать, что они дополняют друг друга? Предметом разговора является один из величайших представителей человечества...

Эрнст Ио́сифович Неизве́стный (9 апреля 1925, Свердловск, Уральская область, СССР — 9 августа 2016, Нью-Йорк, США) — советский и американский скульптор. Участник Великой Отечественной войны.

Качество видео: TVRip

Продолжительность: 00:25:58
Формат: AVI
Видео: XviD, 704x528, 1799 kbps
Аудио: русский, (оригинал), MP3 2.0, 128.00 kbps

Код:

Общее
Полное имя : D:\Гении.и.злодеи.уходящей.эпохи.Эрнст Неизвестный.2010.TVRip.avi
Формат : AVI
Формат/Информация : Audio Video Interleave
Размер файла : 360 Мбайт
Продолжительность : 25 м.
Общий поток : 1937 Кбит/сек
Программа кодирования : VirtualDubMod 1.5.10.2 (build 2540/release)
Библиотека кодирования : VirtualDubMod build 2540/release

Видео
Идентификатор : 0
Формат : MPEG-4 Visual
Профиль формата : Advanced Simple@L5
Параметр BVOP формата : 1
Параметр QPel формата : Нет
Параметр GMC формата : Без точки перехода
Параметр матрицы формата : Default (MPEG)
Идентификатор кодека : XVID
Идентификатор кодека/Подсказка : XviD
Продолжительность : 25 м.
Битрейт : 1799 Кбит/сек
Ширина : 704 пикселя
Высота : 528 пикселей
Соотношение сторон : 4:3
Частота кадров : 25,000 кадров/сек
Цветовое пространство : YUV
Субдискретизация насыщенности : 4:2:0
Битовая глубина : 8 бит
Тип развёртки : Прогрессивная
Метод сжатия : С потерями
Бит/(Пиксели*Кадры) : 0.194
Размер потока : 334 Мбайт (93%)
Библиотека кодирования : XviD 1.2.1 (UTC 2008-12-04)

Аудио
Идентификатор : 1
Формат : MPEG Audio
Версия формата : Version 1
Профиль формата : Layer 3
Идентификатор кодека : 55
Идентификатор кодека/Подсказка : MP3
Продолжительность : 25 м.
Вид битрейта : Постоянный
Битрейт : 128 Кбит/сек
Каналы : 2 канала
Частота : 48,0 КГц
Метод сжатия : С потерями
Размер потока : 23,8 Мбайт (7%)
Выравнивание : Соединение по промежуткам
Продолжительность промежутка : 40 мс. (1,00 видеокадр)
Время предзагрузки промежутка : 504 мс.
Библиотека кодирования : LAME3.98r
Настройки программы : -m s -V 4 -q 2 -lowpass 17 -b 128
picpicpicpicpic
Для увеличения картинки щелкните мышкой по превью

Этот торрент недоступен для скачивания без регистрации, однако доступен по публичной magnet-ссылке (источники с публичных трекеров). Перед использованием ссылки прочтите, пожалуйста Пользовательское соглашение, а также как можно дольше оставайтесь на раздаче! Для того, чтобы скачать сам торрент-файл (который видит больше источников), а также для того, чтобы поблагодарить релизера, вам необходимо зарегистрироваться. Если регистрироваться лень - вы можете также попробовать скачать релиз по нашим партнерским ссылкам ниже.

[underverse.su].t69156.torrent
Трекер: Зарегистрирован   [ 16.08.2016 19:57 ]  

Статус: проверено (by makkol at 16.08.2016 22:45)
Поблагодарили: 1 человек
Тип торрента: публичный - доступные источники с открытых трекеров: 
Размер: 360 MB (занимает 0,08 DVDR, для записи нужно 1 болванка DVDR/RW)
 
 
Похожие темы
Форум Тема Автор Торрент Отв. Посл. сооб.
Личности Гении и Злодеи. Чарли Чаплин (Ольга Арлаускас) [2009 г., документальный, биография, история, кинематограф, SatRip] ARI71
1 | 0

0 | 96

0

07.11.2016 10:36

Личности Гении и злодеи. Сергей Образцов. Человек который играл в куклы (Юлия Маврина) [2016 г., документальный, биография, театр, искусство, SatRip] ARI71
2 | 1

1 | 208

1

02.11.2016 17:13

Личности Гении и злодеи. Трофим Лысенко. Триумф и крах Всесоюзного садовника [2016 г., документальный, биография, наука, история, SatRip] ARI71
1 | 0

0 | 449

1

20.04.2016 14:29

Личности Гении и злодеи. Николай Рерих. Зов Шамбалы [2016 г., документальный, биография, искусство, история, SatRip] ARI71
1 | 1

0 | 660

5

26.04.2016 17:56

Исторический роман Гении и злодеи [11 книг] [2010-2012 г., проза, историческая книга, FB2] RUS Паукан
1 | 0

0 | 670

18

04.06.2015 15:31


Яндекс.Метрика powered by Sphinx


В Н И М А Н И Е
Сайт не распространяет и не хранит электронные версии произведений, а лишь бесплатно и без коммерческой выгоды (не требуя взамен платы,
SMS и т.д.) предоставляет доступ к создаваемому пользователями каталогу ссылок на торрент-файлы, которые содержат только списки хеш-сумм.
Убедительная просьба с жалобами обращаться напрямую к пользователю, разместившему торрент файл.

Вверх