Loading...
Error

Ивар Калныньш. Роман с акцентом (Константин Мурашев) [2013 г., документальный, биография, кинематограф, IPTVRip]

Статистика раздачи
Размер:  681 MB   |    Зарегистрирован:  3 месяца 17 дней   |    Скачан:  0 раз

Полного источника не было: 3 месяца 17 дней

Сидов:  0  |  0 KB/s  ]   Личеров:  0  |  0 KB/s  ]

* - сиды/пиры с внешних источников

   
 
Автор Сообщение

ARI71 Пол:Муж

16-Авг-2016 15:30

Ивар Калныньш. Роман с акцентом


Год выпуска: 2013
Жанр: документальный, биография, кинематограф
Страна: Россия ОАО "Первый канал"
Режиссер: Константин Мурашев
В ролях: Ивар Калныньш
Сюжет фильма:
Все привыкли воспринимать Ивара Калныньша как героя-любовника. Но это лишь его экранный образ... Оказывается, в нем давно дремлет невостребованный комедийный талант. Съемочной группе Первого канала удалось увидеть Ивара Калныньша таким, какой он есть на самом деле. Впервые зрители увидят Калныньша-шутника, Калныньша-балагура и клоуна. Образ героя-любовника пристал к Ивару Калныньшу после фильма "Театр". "Зимняя вишня" режиссера Игоря Масленникова этот образ только закрепила. Сам Калныньш с юности хотел иметь крепкий семейный тыл, спокойную гавань – с детьми, собаками и огородами. Но его актёрство постоянно мешало сбыться этой мечте. Его предыдущим женам не верилось, что Ивар может быть верным мужем. Их сомнения и ревность и приводили к разводам. И каждый раз расставание с очередной женой актер воспринимал как трагедию. Всё, что ему хотелось - это тепла и уюта. И он совсем не волк-одиночка, который больше всего дорожит своей свободой...И вот наконец "на старости лет" ему повезло!

И́варc Эдмундc Ка́лныньш (латыш. Ivars Edmunds Kalniņš; род. 1 августа 1948 года, Рига) — советский и латышский актёр театра и кино.

Качество видео: IPTVRip

Продолжительность: 00:51:50
Формат: AVI
Видео: XviD, 704x384, 1700 kbps
Аудио: русский, (оригинал), MP3 2.0, 128.00 kbps

Код:

Общее
Полное имя : D:\Ивар Калныньш.Роман с акцентом.2013.IPTVRip.avi
Формат : AVI
Формат/Информация : Audio Video Interleave
Размер файла : 681 Мбайт
Продолжительность : 51 м.
Общий поток : 1837 Кбит/сек
Программа кодирования : VirtualDubMod 1.5.10.3 | www.virtualdub-fr.org || (build 2550/release)
Библиотека кодирования : VirtualDubMod build 2550/release

Видео
Идентификатор : 0
Формат : MPEG-4 Visual
Профиль формата : Advanced Simple@L5
Параметр BVOP формата : 2
Параметр QPel формата : Нет
Параметр GMC формата : Без точки перехода
Параметр матрицы формата : Default (MPEG)
Режим смешивания : Сжатый битовый поток
Идентификатор кодека : XVID
Идентификатор кодека/Подсказка : XviD
Продолжительность : 51 м.
Битрейт : 1700 Кбит/сек
Ширина : 704 пикселя
Высота : 384 пикселя
Соотношение сторон : 1,85:1
Частота кадров : 25,000 кадров/сек
Цветовое пространство : YUV
Субдискретизация насыщенности : 4:2:0
Битовая глубина : 8 бит
Тип развёртки : Прогрессивная
Метод сжатия : С потерями
Бит/(Пиксели*Кадры) : 0.252
Размер потока : 630 Мбайт (93%)
Библиотека кодирования : XviD 73

Аудио
Идентификатор : 1
Формат : MPEG Audio
Версия формата : Version 1
Профиль формата : Layer 3
Идентификатор кодека : 55
Идентификатор кодека/Подсказка : MP3
Продолжительность : 51 м.
Вид битрейта : Постоянный
Битрейт : 128 Кбит/сек
Каналы : 2 канала
Частота : 48,0 КГц
Метод сжатия : С потерями
Размер потока : 47,5 Мбайт (7%)
Выравнивание : Соединение по промежуткам
Продолжительность промежутка : 40 мс. (1,00 видеокадр)
Время предзагрузки промежутка : 504 мс.
Библиотека кодирования : LAME3.99r
Настройки программы : -m s -V 4 -q 2 -lowpass 17 -b 128
picpicpicpic
Для увеличения картинки щелкните мышкой по превью

Этот торрент недоступен для скачивания без регистрации, однако доступен по публичной magnet-ссылке (источники с публичных трекеров). Перед использованием ссылки прочтите, пожалуйста Пользовательское соглашение, а также как можно дольше оставайтесь на раздаче! Для того, чтобы скачать сам торрент-файл (который видит больше источников), а также для того, чтобы поблагодарить релизера, вам необходимо зарегистрироваться. Если регистрироваться лень - вы можете также попробовать скачать релиз по нашим партнерским ссылкам ниже.

[underverse.su].t69148.torrent
Трекер: Зарегистрирован   [ 16.08.2016 15:30 ]  

Статус: проверено (by 90ytr90 at 16.08.2016 16:28)
Поблагодарили: пока никто не поблагодарил...
Тип торрента: публичный - доступные источники с открытых трекеров: 
Размер: 681 MB (занимает 0,15 DVDR, для записи нужно 1 болванка DVDR/RW)
 
 

Яндекс.Метрика powered by Sphinx


В Н И М А Н И Е
Сайт не распространяет и не хранит электронные версии произведений, а лишь бесплатно и без коммерческой выгоды (не требуя взамен платы,
SMS и т.д.) предоставляет доступ к создаваемому пользователями каталогу ссылок на торрент-файлы, которые содержат только списки хеш-сумм.
Убедительная просьба с жалобами обращаться напрямую к пользователю, разместившему торрент файл.

Вверх