Loading...
Error

Громче, чем бомбы / Louder Than Bombs (Йоаким Триер) [2015 г., драма, HDRip] Dub (iTunes)

Статистика раздачи
Размер:  1,37 GB   |    Зарегистрирован:  3 месяца 24 дня   |    Скачан:  3 раза
Сидов:  1  |  0 KB/s  ]   Личеров:  0  |  0 KB/s  ]

* - сиды/пиры с внешних источников

   
 
Автор Сообщение

makkol Пол:Муж

16-Авг-2016 14:48

Громче, чем бомбы / Louder Than Bombs


Год выпуска: 2015
Жанр: драма
Производство: Норвегия , Франция , Дания , США [Motlys, Animal Kingdom, Arte France Cinéma]
Режиссер: Йоаким Триер
В ролях: Гэбриел Бирн, Изабель Юппер, Джесси Айзенберг, Девин Друид, Эми Райан, Руби Джеринс, Меган Кетч, Дэвид Стрэтэйрн
Сюжет фильма:
Одна семья, трое мужчин и три взгляда на любимую женщину. Стареющий плейбой и добродушный отец семейства, остепенившийся насмешливый старший сын и хмурый романтичный подросток хранят свои воспоминания о матери и жене, которая тихому пригороду Нью-Йорка предпочла военную фотографию. То забавные, то пронзительные истории о ней переплетаются с событиями сегодняшнего дня, где каждый из мужчин переживает новую любовь, которая всё-таки громче, чем бомбы...

  • Мировая премьера: 18 мая 2015
  • Российская премьера: 7 апреля 2016


Качество видео: HDRip

Продолжительность: 01:44:44
Формат: AVI
Видео: XviD, 720x384 (1.85:1), 25.000 fps, 1474 kbps
Аудио: русский, дублированный (iTunes), AC3 5.1, 48 kHz, 384 kbps

Код:

Формат                                   : AVI
Формат/Информация                        : Audio Video Interleave
Размер файла                             : 1,37 Гбайт
Продолжительность                        : 1 ч. 44 м.
Общий поток                              : 1868 Кбит/сек
Название фильма                          : GP0m4e.4em.b0mbY.2o15.D.HDRip.14OOMB
Программа кодирования                    : VirtualDubMod 1.5.10.2 (build 2540/release)
Формат оригинала/Имя                     : Movie

Видео
Идентификатор                            : 0
Формат                                   : MPEG-4 Visual
Профиль формата                          : Advanced Simple@L5
Параметр BVOP формата                    : 2
Параметр QPel формата                    : Нет
Параметр GMC формата                     : Без точки перехода
Параметр матрицы формата                 : Выборочная
Идентификатор кодека                     : XVID
Идентификатор кодека/Подсказка           : XviD
Продолжительность                        : 1 ч. 44 м.
Битрейт                                  : 1474 Кбит/сек
Ширина                                   : 720 пикселей
Высота                                   : 384 пикселя
Соотношение сторон                       : 1,85:1
Частота кадров                           : 25,000 кадров/сек
Цветовое пространство                    : YUV
Субдискретизация насыщенности            : 4:2:0
Битовая глубина                          : 8 бит
Тип развёртки                            : Прогрессивная
Метод сжатия                             : С потерями
Бит/(Пиксели*Кадры)                      : 0.213
Размер потока                            : 1,08 Гбайт (79%)
Библиотека кодирования                   : XviD 1.2.1 (UTC 2008-12-04)

Аудио
Идентификатор                            : 1
Формат                                   : AC-3
Формат/Информация                        : Audio Coding 3
Расширение режима                        : CM (complete main)
Параметр Endianness формата              : Big
Идентификатор кодека                     : 2000
Продолжительность                        : 1 ч. 44 м.
Вид битрейта                             : Постоянный
Битрейт                                  : 384 Кбит/сек
Каналы                                   : 6 каналов
Расположение каналов                     : Front: L C R, Side: L R, LFE
Частота                                  : 48,0 КГц
Битовая глубина                          : 16 бит
Метод сжатия                             : С потерями
Размер потока                            : 287 Мбайт (21%)
Выравнивание                             : Разделение по промежуткам
Продолжительность промежутка             : 40  мс. (1,00 видеокадр)
Время предзагрузки промежутка            : 500  мс.
picpicpicpicpic
Для увеличения картинки щелкните мышкой по превью

Этот торрент недоступен для скачивания без регистрации, однако доступен по публичной magnet-ссылке (источники с публичных трекеров). Перед использованием ссылки прочтите, пожалуйста Пользовательское соглашение, а также как можно дольше оставайтесь на раздаче! Для того, чтобы скачать сам торрент-файл (который видит больше источников), а также для того, чтобы поблагодарить релизера, вам необходимо зарегистрироваться. Если регистрироваться лень - вы можете также попробовать скачать релиз по нашим партнерским ссылкам ниже.

[underverse.su].t69144.torrent
Трекер: Зарегистрирован   [ 16.08.2016 14:48 ]  

Статус: T временная (by makkol at 22.08.2016 22:24)
Поблагодарили: пока никто не поблагодарил...
Тип торрента: публичный - доступные источники с открытых трекеров: 
Размер: 1,37 GB (занимает 0,31 DVDR, для записи нужно 1 болванка DVDR/RW)
 
 
Похожие темы
Форум Тема Автор Торрент Отв. Посл. сооб.
T Зарубежное кино [DVDRip, Low-Res HDRip, и т.д.] Громче, чем бомбы / Louder Than Bombs (Йоаким Триер / Joachim Trier) [2015 г., драма, WEB-DLRip] Dub (чистый звук) 90ytr90
166 | 3

0 | 698

15

10.05.2016 12:30

T Зарубежное кино [HDDVDRip / BDRip / WEB-DL / HDTV 1080/720р] Громче, чем бомбы / Louder Than Bombs (Йоаким Триер / Joachim Trier) [2015 г., драма, WEB-DL 1080p] Dub (чистый звук) + Original (Eng) 90ytr90
29 | 0

0 | 622

10

10.05.2016 12:43

T Зарубежное кино [HDDVDRip / BDRip / WEB-DL / HDTV 1080/720р] Громче, чем бомбы / Louder Than Bombs (Йоаким Триер / Joachim Trier) [2015 г., драма, BDRip 720p] Dub (чистый звук) + Original (Eng) 90ytr90
38 | 2

0 | 906

8

02.06.2016 11:23

T Зарубежное кино [HDDVDRip / BDRip / WEB-DL / HDTV 1080/720р] Громче, чем бомбы / Louder Than Bombs (Йоаким Триер) [2015 г., драма, BDRip 720p] Dub (iTunes) + Original makkol
25 | 3

0 | 221

0

16.08.2016 14:59

T Зарубежное кино [HDDVDRip / BDRip / WEB-DL / HDTV 1080/720р] Громче, чем бомбы / Louder Than Bombs (Йоаким Триер) [2015 г., драма, BDRip 1080p] Dub (iTunes) + Original makkol
0 | 0

0 | 247

3

16.08.2016 15:06


Яндекс.Метрика powered by Sphinx


В Н И М А Н И Е
Сайт не распространяет и не хранит электронные версии произведений, а лишь бесплатно и без коммерческой выгоды (не требуя взамен платы,
SMS и т.д.) предоставляет доступ к создаваемому пользователями каталогу ссылок на торрент-файлы, которые содержат только списки хеш-сумм.
Убедительная просьба с жалобами обращаться напрямую к пользователю, разместившему торрент файл.

Вверх