Loading...
Error

Крутые меры / Bastille Day (Джеймс Уоткинс) [2016 г., боевик, драма, HDRip] Dub (звук с TS)

Статистика раздачи
Размер:  1,37 GB   |    Зарегистрирован:  3 месяца 23 дня   |    Скачан:  22 раза

Полного источника не было: 5 дней

Сидов:  0  |  0 KB/s  ]   Личеров:  0  |  0 KB/s  ]

* - сиды/пиры с внешних источников

   
 
Автор Сообщение

makkol Пол:Муж

16-Авг-2016 14:27

Крутые меры / Bastille Day
«Напарников не выбирают»


Год выпуска: 2016
Жанр: боевик, драма
Производство: Великобритания , Франция , США [StudioCanal, Amazon Prime Instant Video, Anonymous Content]
Режиссер: Джеймс Уоткинс
В ролях: Идрис Эльба, Ричард Мэдден, Келли Райлли, Шарлотта Ле Бон, Анатол Юсеф, Хорхе Леон Мартинес, Хосе Гарсия, Александр Купер, Карл Фаррер
Сюжет фильма:
Ловкий карманник Майкл Мэйсон привлекает внимание полиции и спецслужб, когда крадёт сумку, содержащую гораздо больше, чем просто бумажник. На его след выходит дерзкий и резкий спецагент ЦРУ Шон Брайар. Вдвоем они становятся мишенью тайной преступной организации и в течение суток должны вывести злоумышленников на чистую воду...

  • Мировая премьера: 20 апреля 2016
  • Российская премьера: 28 июля 2016


Качество видео: HDRip

Продолжительность: 01:31:44
Формат: AVI
Видео: XviD, 720x304 (2.35:1), 24.000 fps, 1742 kbps
Аудио: русский, дублированный (звук с TS), AC3 2.0, 48 kHz, 384 kbps

Код:

Формат                                   : AVI
Формат/Информация                        : Audio Video Interleave
Размер файла                             : 1,37 Гбайт
Продолжительность                        : 1 ч. 31 м.
Общий поток                              : 2136 Кбит/сек
Программа кодирования                    : VirtualDubMod 1.5.10.2 (build 2540/release)
Библиотека кодирования                   : VirtualDubMod build 2540/release

Видео
Идентификатор                            : 0
Формат                                   : MPEG-4 Visual
Профиль формата                          : Advanced Simple@L5
Параметр BVOP формата                    : 2
Параметр QPel формата                    : Нет
Параметр GMC формата                     : Без точки перехода
Параметр матрицы формата                 : Выборочная
Идентификатор кодека                     : XVID
Идентификатор кодека/Подсказка           : XviD
Продолжительность                        : 1 ч. 31 м.
Битрейт                                  : 1742 Кбит/сек
Ширина                                   : 720 пикселей
Высота                                   : 304 пикселя
Соотношение сторон                       : 2,35:1
Частота кадров                           : 24,000 кадра/сек
Цветовое пространство                    : YUV
Субдискретизация насыщенности            : 4:2:0
Битовая глубина                          : 8 бит
Тип развёртки                            : Прогрессивная
Метод сжатия                             : С потерями
Бит/(Пиксели*Кадры)                      : 0.332
Размер потока                            : 1,12 Гбайт (82%)
Библиотека кодирования                   : XviD 1.2.1 (UTC 2008-12-04)

Аудио
Идентификатор                            : 1
Формат                                   : AC-3
Формат/Информация                        : Audio Coding 3
Расширение режима                        : CM (complete main)
Параметр Endianness формата              : Big
Идентификатор кодека                     : 2000
Продолжительность                        : 1 ч. 31 м.
Вид битрейта                             : Постоянный
Битрейт                                  : 384 Кбит/сек
Каналы                                   : 2 канала
Расположение каналов                     : Front: L R
Частота                                  : 48,0 КГц
Битовая глубина                          : 16 бит
Метод сжатия                             : С потерями
Размер потока                            : 252 Мбайт (18%)
Выравнивание                             : Разделение по промежуткам
Продолжительность промежутка             : 42  мс. (1,00 видеокадр)
Время предзагрузки промежутка            : 500  мс.
Присутствует реклама


picpicpicpicpic
Для увеличения картинки щелкните мышкой по превью

Этот торрент недоступен для скачивания без регистрации, однако доступен по публичной magnet-ссылке (источники с публичных трекеров). Перед использованием ссылки прочтите, пожалуйста Пользовательское соглашение, а также как можно дольше оставайтесь на раздаче! Для того, чтобы скачать сам торрент-файл (который видит больше источников), а также для того, чтобы поблагодарить релизера, вам необходимо зарегистрироваться. Если регистрироваться лень - вы можете также попробовать скачать релиз по нашим партнерским ссылкам ниже.

[underverse.su].t69143.torrent
Трекер: Зарегистрирован   [ 16.08.2016 14:27 ]  

Статус: T временная (by makkol at 22.08.2016 22:23)
Поблагодарили: 2 человека
Тип торрента: публичный - доступные источники с открытых трекеров: 
Размер: 1,37 GB (занимает 0,31 DVDR, для записи нужно 1 болванка DVDR/RW)
 
 
Похожие темы
Форум Тема Автор Торрент Отв. Посл. сооб.
Зарубежное кино [DVDRip, Low-Res HDRip, и т.д.] Крутые меры / Bastille Day (Джеймс Уоткинс / James Watkins) [2016 г., боевик, драма, BDRip-AVC] MVO (Paradox & Omskbird records) + AVO (Есарев) + Original (Eng) + Sub (Eng) 90ytr90
460 | 16

0 | 353

2

19.11.2016 20:51

T Зарубежное кино [DVDRip, Low-Res HDRip, и т.д.] Крутые меры / Bastille Day (Джеймс Уоткинс) [2016 г., боевик, драма, HDRip] Dub (Line) makkol
501 | 1

0 | 314

20

07.09.2016 22:36

T Зарубежное кино [DVDRip, Low-Res HDRip, и т.д.] Крутые меры / Bastille Day (Джеймс Уоткинс) [2016 г., боевик, драма, HDRip] Dub (iTunes) makkol
703 | 12

0 | 323

9

09.10.2016 21:37

T Зарубежное кино [DVDRip, Low-Res HDRip, и т.д.] Крутые меры / Bastille Day (Джеймс Уоткинс) [2016 г., боевик, драма, HDRip] MVO makkol
1 | 0

0 | 498

19

19.08.2016 11:59

T Зарубежное кино [DVDRip, Low-Res HDRip, и т.д.] Крутые меры / Bastille Day (Джеймс Уоткинс / James Watkins) [2016 г., боевик, драма, HDRip] VO (Хихидок) + Sub (Eng) + hardsub (Eng) 90ytr90
122 | 2

1 | 464

11

18.08.2016 18:01

# Зарубежное кино [DVDRip, Low-Res HDRip, и т.д.] Крутые меры / Bastille Day (Джеймс Уоткинс / James Watkins) [2016 г., боевик, драма, HDRip] AVO (Есарев) + hardsub (Eng) 90ytr90
81 | 0

0 | 290

7

01.09.2016 09:00

T Зарубежное кино [HDDVDRip / BDRip / WEB-DL / HDTV 1080/720р] Крутые меры / Bastille Day (Джеймс Уоткинс / James Watkins) [2016 г., боевик, драма, BDRip 720p] Dub (iTunes) + AVO (Д.Есарев) + Original (Eng) + Sub (Eng) 90ytr90
108 | 11

0 | 318

4

19.11.2016 20:58

T Зарубежное кино [HDDVDRip / BDRip / WEB-DL / HDTV 1080/720р] Крутые меры / Bastille Day (Джеймс Уоткинс) [2016 г., боевик, драма, BDRip 1080p] Dub (Line) makkol
102 | 1

0 | 361

6

07.09.2016 22:51

T Зарубежное кино [HDDVDRip / BDRip / WEB-DL / HDTV 1080/720р] Крутые меры / Bastille Day (Джеймс Уоткинс) [2016 г., боевик, драма, BDRip 720p] Dub (Line) makkol
135 | 4

0 | 321

2

07.09.2016 22:43

T Зарубежное кино [HDDVDRip / BDRip / WEB-DL / HDTV 1080/720р] Крутые меры / Bastille Day (Джеймс Уоткинс) [2016 г., боевик, драма, BDRip 720p] MVO makkol
135 | 2

0 | 493

12

19.08.2016 12:17


Яндекс.Метрика powered by Sphinx


В Н И М А Н И Е
Сайт не распространяет и не хранит электронные версии произведений, а лишь бесплатно и без коммерческой выгоды (не требуя взамен платы,
SMS и т.д.) предоставляет доступ к создаваемому пользователями каталогу ссылок на торрент-файлы, которые содержат только списки хеш-сумм.
Убедительная просьба с жалобами обращаться напрямую к пользователю, разместившему торрент файл.

Вверх