Loading...
Error

Свидетели. Роковая ошибка генерала Пуго (Любовь Хоботова) [2003 г., документальный, биография, история, IPTVRip]

Статистика раздачи
Размер:  599 MB   |    Зарегистрирован:  3 месяца 20 дней   |    Скачан:  1 раз

Полного источника не было: 3 месяца 20 дней

Сидов:  0  |  0 KB/s  ]   Личеров:  0  |  0 KB/s  ]

* - сиды/пиры с внешних источников

   
 
Автор Сообщение

ARI71 Пол:Муж

16-Авг-2016 12:19

Свидетели. Роковая ошибка генерала Пуго


Год выпуска: 2003
Жанр: документальный, биография, история
Страна: Россия ГТК "Телеканал "Россия"
Режиссер: Любовь Хоботова
Сюжет фильма:
Август 1991 года. После провала ГКЧП министр внутренних дел СССР Борис Карлович Пуго убил свою жену и покончил с собой. Уже в те дни говорили о том, что Пуго, возможно, и не сам решил свести счеты с жизнью, что его к этому подтолкнули. Но в эйфории победы демократии трагические события быстро забылись... В фильме о них рассказывают сын Бориса Карловича, следователи, которые занимались делом Пуго, бывшие члены ГКЧП - Олег Шенин, Владимир Крючков, Дмитрий Язов, а также академик Александр Николаевич Яковлев.

Бори́с Ка́рлович Пу́го (латыш. Boriss Pugo; 19 февраля 1937, Калинин — 22 августа 1991, Москва) — советский партийный и государственный деятель, первый секретарь ЦК КП Латвии (1984—1988). Министр внутренних дел СССР (1990—1991). C 18 по 21 августа 1991 года — член ГКЧП.

Качество видео: IPTVRip

Продолжительность: 00:44:02
Формат: AVI
Видео: XviD, 704x432, 1700 kbps
Аудио: русский, (оригинал), AC3 2.0, 192.00 kbps

Код:

Общее
Полное имя : D:\Свидетели.Роковая ошибка генерала Пуго.2003.IPTVRip.avi
Формат : AVI
Формат/Информация : Audio Video Interleave
Размер файла : 599 Мбайт
Продолжительность : 44 м.
Общий поток : 1901 Кбит/сек
Программа кодирования : VirtualDubMod 1.5.10.3 | www.virtualdub-fr.org || (build 2550/release)
Библиотека кодирования : VirtualDubMod build 2550/release

Видео
Идентификатор : 0
Формат : MPEG-4 Visual
Профиль формата : Advanced Simple@L5
Параметр BVOP формата : 2
Параметр QPel формата : Нет
Параметр GMC формата : Без точки перехода
Параметр матрицы формата : Default (MPEG)
Режим смешивания : Сжатый битовый поток
Идентификатор кодека : XVID
Идентификатор кодека/Подсказка : XviD
Продолжительность : 44 м.
Битрейт : 1700 Кбит/сек
Ширина : 704 пикселя
Высота : 432 пикселя
Соотношение сторон : 16:10
Частота кадров : 25,000 кадров/сек
Цветовое пространство : YUV
Субдискретизация насыщенности : 4:2:0
Битовая глубина : 8 бит
Тип развёртки : Прогрессивная
Метод сжатия : С потерями
Бит/(Пиксели*Кадры) : 0.224
Размер потока : 535 Мбайт (89%)
Библиотека кодирования : XviD 73

Аудио
Идентификатор : 1
Формат : AC-3
Формат/Информация : Audio Coding 3
Расширение режима : CM (complete main)
Параметр Endianness формата : Big
Идентификатор кодека : 2000
Продолжительность : 44 м.
Вид битрейта : Постоянный
Битрейт : 192 Кбит/сек
Каналы : 2 канала
Расположение каналов : Front: L R
Частота : 48,0 КГц
Частота кадров : 31,250 кадров/сек (1536 spf)
Метод сжатия : С потерями
Размер потока : 60,5 Мбайт (10%)
Выравнивание : Разделение по промежуткам
Продолжительность промежутка : 40 мс. (1,00 видеокадр)
Время предзагрузки промежутка : 500 мс.
picpicpicpicpic
Для увеличения картинки щелкните мышкой по превью

Этот торрент недоступен для скачивания без регистрации, однако доступен по публичной magnet-ссылке (источники с публичных трекеров). Перед использованием ссылки прочтите, пожалуйста Пользовательское соглашение, а также как можно дольше оставайтесь на раздаче! Для того, чтобы скачать сам торрент-файл (который видит больше источников), а также для того, чтобы поблагодарить релизера, вам необходимо зарегистрироваться. Если регистрироваться лень - вы можете также попробовать скачать релиз по нашим партнерским ссылкам ниже.

[underverse.su].t69142.torrent
Трекер: Зарегистрирован   [ 16.08.2016 12:19 ]  

Статус: проверено (by makkol at 16.08.2016 14:05)
Поблагодарили: пока никто не поблагодарил...
Тип торрента: публичный - доступные источники с открытых трекеров: 
Размер: 599 MB (занимает 0,13 DVDR, для записи нужно 1 болванка DVDR/RW)
 
 
Похожие темы
Форум Тема Автор Торрент Отв. Посл. сооб.
Личности Свидетели. Хочу быть честным. Владимир Войнович (1-2 серии из 2) / (Сергей Смаглюк) [2012 г., документальный, биография, история, SatRip] ARI71
10 | 0

1 | 448

0

26.09.2016 14:49


Яндекс.Метрика powered by Sphinx


В Н И М А Н И Е
Сайт не распространяет и не хранит электронные версии произведений, а лишь бесплатно и без коммерческой выгоды (не требуя взамен платы,
SMS и т.д.) предоставляет доступ к создаваемому пользователями каталогу ссылок на торрент-файлы, которые содержат только списки хеш-сумм.
Убедительная просьба с жалобами обращаться напрямую к пользователю, разместившему торрент файл.

Вверх