Loading...
Error

К черту на рога / Quo vado? (Джейк Зиманский) [2016 г., комедия, HDRip] Dub (звук с TS)

Статистика раздачи
Размер:  1,37 GB   |    Зарегистрирован:  3 месяца 19 дней   |    Скачан:  16 раз

Полного источника не было: 12 дней

Сидов:  0  |  0 KB/s  ]   Личеров:  0  |  0 KB/s  ]

* - сиды/пиры с внешних источников

   
 
Автор Сообщение

makkol Пол:Муж

15-Авг-2016 22:16

К черту на рога / Quo vado?


Год выпуска: 2016
Жанр: комедия
Производство: Италия [Medusa Film, Taodue Film]
Режиссер: Джейк Зиманский
В ролях: Кекко Дзалоне, Элеонора Джованарди, Соня Бергамаско, Маурицио Микели, Лино Банфи, Людовика Модуньо, Антонино Брускетта, Паоло Пьеробон, Азурра Мартино
Сюжет фильма:
15 лет верой и правдой служил Кекко своему народу — с утра до ночи, не жалея сил, просиживал штаны в Управлении охоты и рыболовства. Положение, зарплата, куча бонусов, включая милые подарки от посетителей: не жизнь, а сказка. Но пришла беда, откуда не ждали, — в министерстве решили сократить штаты, предложив чиновникам хорошее выходное пособие. Ну, а тем, кто заартачится — добро пожаловать в командировку «к черту на рога». Упрямец Кекко не захотел расставаться с дорогой его сердцу госслужбой — и начался полный приключений период в жизни бюрократа-бездельника. Уж чего только реформаторы не придумывали, чтобы от него избавиться, в какие только медвежьи углы Италии его не посылали — всё бестолку. И тогда министерские изверги отправили Кекко на Северный полюс, думали — в наказание, а оказалось — навстречу сумасшедшей любви.

  • Мировая премьера: 1 января 2016
  • Российская премьера: 11 августа 2016


Качество видео: HDRip

Продолжительность: 01:26:55
Формат: AVI
Видео: XviD, 720x304 (2.35:1), 23.976 fps, 1864 kbps
Аудио: русский, дублированный (звук с TS), AC3 2.0, 48 kHz, 384 kbps

Код:

Формат                                   : AVI
Формат/Информация                        : Audio Video Interleave
Размер файла                             : 1,37 Гбайт
Продолжительность                        : 1 ч. 26 м.
Общий поток                              : 2258 Кбит/сек
Программа кодирования                    : VirtualDubMod 1.5.10.2 (build 2540/release)
Библиотека кодирования                   : VirtualDubMod build 2540/release

Видео
Идентификатор                            : 0
Формат                                   : MPEG-4 Visual
Профиль формата                          : Advanced Simple@L5
Параметр BVOP формата                    : 2
Параметр QPel формата                    : Нет
Параметр GMC формата                     : Без точки перехода
Параметр матрицы формата                 : Выборочная
Идентификатор кодека                     : XVID
Идентификатор кодека/Подсказка           : XviD
Продолжительность                        : 1 ч. 26 м.
Битрейт                                  : 1864 Кбит/сек
Ширина                                   : 720 пикселей
Высота                                   : 304 пикселя
Соотношение сторон                       : 2,35:1
Частота кадров                           : 23,976 кадра/сек
Цветовое пространство                    : YUV
Субдискретизация насыщенности            : 4:2:0
Битовая глубина                          : 8 бит
Тип развёртки                            : Прогрессивная
Метод сжатия                             : С потерями
Бит/(Пиксели*Кадры)                      : 0.355
Размер потока                            : 1,13 Гбайт (83%)
Библиотека кодирования                   : XviD 1.2.1 (UTC 2008-12-04)

Аудио
Идентификатор                            : 1
Формат                                   : AC-3
Формат/Информация                        : Audio Coding 3
Расширение режима                        : CM (complete main)
Параметр Endianness формата              : Big
Идентификатор кодека                     : 2000
Продолжительность                        : 1 ч. 26 м.
Вид битрейта                             : Постоянный
Битрейт                                  : 384 Кбит/сек
Каналы                                   : 2 канала
Расположение каналов                     : Front: L R
Частота                                  : 48,0 КГц
Битовая глубина                          : 16 бит
Метод сжатия                             : С потерями
Размер потока                            : 239 Мбайт (17%)
Выравнивание                             : Разделение по промежуткам
Продолжительность промежутка             : 42  мс. (1,00 видеокадр)
Время предзагрузки промежутка            : 500  мс.
Присутствует реклама


picpicpicpicpic
Для увеличения картинки щелкните мышкой по превью

Этот торрент недоступен для скачивания без регистрации, однако доступен по публичной magnet-ссылке (источники с публичных трекеров). Перед использованием ссылки прочтите, пожалуйста Пользовательское соглашение, а также как можно дольше оставайтесь на раздаче! Для того, чтобы скачать сам торрент-файл (который видит больше источников), а также для того, чтобы поблагодарить релизера, вам необходимо зарегистрироваться. Если регистрироваться лень - вы можете также попробовать скачать релиз по нашим партнерским ссылкам ниже.

[underverse.su].t69105.torrent
Трекер: Зарегистрирован   [ 15.08.2016 22:16 ]  

Статус: поглощено (by 90ytr90 at 05.11.2016 10:50)
Поблагодарили: пока никто не поблагодарил...
Тип торрента: публичный - доступные источники с открытых трекеров: 
Размер: 1,37 GB (занимает 0,31 DVDR, для записи нужно 1 болванка DVDR/RW)
 
 
Похожие темы
Форум Тема Автор Торрент Отв. Посл. сооб.
T Зарубежное кино [DVDRip, Low-Res HDRip, и т.д.] К чёрту на рога / Quo vado? (Дженнаро Нунцианте / Gennaro Nunziante) [2016 г., комедия, HDRip] Dub (iTunes) 90ytr90
57 | 1

0 | 210

3

05.11.2016 10:54

T Зарубежное кино [DVDRip, Low-Res HDRip, и т.д.] К черту на рога / Quo vado? (Джейк Зиманский) [2016 г., комедия, HDRip-AVC] Dub (iTunes) + Original makkol
399 | 13

0 | 493

6

01.10.2016 13:26

T Зарубежное кино [DVDRip, Low-Res HDRip, и т.д.] К черту на рога / Quo vado? (Джейк Зиманский) [2016 г., комедия, HDRip] Dub (iTunes) makkol
3597 | 81

0 | 490

27

01.10.2016 13:19

T Зарубежное кино [HDDVDRip / BDRip / WEB-DL / HDTV 1080/720р] К чёрту на рога / Quo vado? (Дженнаро Нунцианте / Gennaro Nunziante) [2016 г., комедия, BDRip 1080p] Dub (iTunes) + Original (Ita) + Sub (Ita, Eng) 90ytr90
164 | 5

0 | 196

1

05.11.2016 11:00

T Зарубежное кино [HDDVDRip / BDRip / WEB-DL / HDTV 1080/720р] К черту на рога / Quo vado? (Джейк Зиманский) [2016 г., комедия, BDRip 720p] Dub (iTunes) + Original makkol
606 | 19

0 | 441

16

01.10.2016 13:42

05-Ноя-2016 10:50

Топик был перенесен из форума Зарубежное кино [DVDRip, Low-Res HDRip, и т.д.] в форум Для поглощенных раздач

Причина переноса: http://underverse.su/viewtopic.php?t=69192
90ytr90
 

Яндекс.Метрика powered by Sphinx


В Н И М А Н И Е
Сайт не распространяет и не хранит электронные версии произведений, а лишь бесплатно и без коммерческой выгоды (не требуя взамен платы,
SMS и т.д.) предоставляет доступ к создаваемому пользователями каталогу ссылок на торрент-файлы, которые содержат только списки хеш-сумм.
Убедительная просьба с жалобами обращаться напрямую к пользователю, разместившему торрент файл.

Вверх