Loading...
Error

Заядлые рыбаки: На каяках по отмелям / Hooked on Fishing: Kayaking the Keys (Рик Уокер) [2007 г., документальный, морская рыбалка, TVRip] VO

Статистика раздачи
Размер:  279 MB   |    Зарегистрирован:  3 месяца 25 дней   |    Скачан:  0 раз

Полного источника не было: 4 дня

Сидов:  0  |  0 KB/s  ]   Личеров:  1  |  0 KB/s  ]

* - сиды/пиры с внешних источников

   
 
Автор Сообщение

ARI71 Пол:Муж

15-Авг-2016 14:52

Заядлые рыбаки: На каяках по отмелям / Hooked on Fishing: Kayaking the Keys


Год выпуска: 2007
Жанр: документальный, морская рыбалка
Страна: США Discovery Channel
Режиссер: Рик Уокер
В ролях: Пол Янг
Сюжет фильма:
Пол Янг знакомится с прелестями мелководья во Флориде, где он обнаруживает крупного тарпона, здоровенную бычью акулу, выпрыгивающую из воды пятнистую форель и сонного робало.
Качество видео: TVRip

Продолжительность: 00:23:20
Формат: AVI
Видео: DivX 5, 720x540, ~1599 kbps
Аудио: русский, одноголосый (профессиональный), MP3 2.0, ~64.00 kbps

Код:

Общее
Полное имя : D:\Заядлые рыбаки (На каяках по отмелям) - Discovery Channel.avi
Формат : AVI
Формат/Информация : Audio Video Interleave
Размер файла : 279 Мбайт
Продолжительность : 23 м.
Общий поток : 1673 Кбит/сек
Программа кодирования : Lavf50.6.0
Библиотека кодирования : VirtualDub build 27021/release

Видео
Идентификатор : 0
Формат : MPEG-4 Visual
Параметр BVOP формата : 1
Параметр QPel формата : Нет
Параметр GMC формата : Без точки перехода
Параметр матрицы формата : Default (H.263)
Режим смешивания : Сжатый битовый поток
Идентификатор кодека : DX50
Идентификатор кодека/Подсказка : DivX 5
Продолжительность : 23 м.
Битрейт : 1599 Кбит/сек
Ширина : 720 пикселей
Высота : 540 пикселей
Соотношение сторон : 1,939
Частота кадров : 25,000 кадров/сек
Цветовое пространство : YUV
Субдискретизация насыщенности : 4:2:0
Битовая глубина : 8 бит
Тип развёртки : Прогрессивная
Метод сжатия : С потерями
Бит/(Пиксели*Кадры) : 0.165
Размер потока : 267 Мбайт (96%)
Библиотека кодирования : DivX 6.8.0 (UTC 2007-12-04)

Аудио
Идентификатор : 1
Формат : MPEG Audio
Версия формата : Version 1
Профиль формата : Layer 3
Режим : Joint stereo
Расширение режима : MS Stereo
Идентификатор кодека : 55
Идентификатор кодека/Подсказка : MP3
Продолжительность : 23 м.
Вид битрейта : Постоянный
Битрейт : 64,0 Кбит/сек
Каналы : 2 канала
Частота : 48,0 КГц
Метод сжатия : С потерями
Задержка видео : 16 мс.
Размер потока : 10,7 Мбайт (4%)
Выравнивание : Разделение по промежуткам
Продолжительность промежутка : 40 мс. (1,00 видеокадр)
Время предзагрузки промежутка : 500 мс.
picpicpicpicpic
Для увеличения картинки щелкните мышкой по превью

Этот торрент недоступен для скачивания без регистрации, однако доступен по публичной magnet-ссылке (источники с публичных трекеров). Перед использованием ссылки прочтите, пожалуйста Пользовательское соглашение, а также как можно дольше оставайтесь на раздаче! Для того, чтобы скачать сам торрент-файл (который видит больше источников), а также для того, чтобы поблагодарить релизера, вам необходимо зарегистрироваться. Если регистрироваться лень - вы можете также попробовать скачать релиз по нашим партнерским ссылкам ниже.

[underverse.su].t69081.torrent
Трекер: Зарегистрирован   [ 15.08.2016 14:52 ]  

Статус: проверено (by makkol at 15.08.2016 21:46)
Поблагодарили: пока никто не поблагодарил...
Тип торрента: публичный - доступные источники с открытых трекеров: 
Размер: 279 MB (занимает 0,06 DVDR, для записи нужно 1 болванка DVDR/RW)
 
 

Яндекс.Метрика powered by Sphinx


В Н И М А Н И Е
Сайт не распространяет и не хранит электронные версии произведений, а лишь бесплатно и без коммерческой выгоды (не требуя взамен платы,
SMS и т.д.) предоставляет доступ к создаваемому пользователями каталогу ссылок на торрент-файлы, которые содержат только списки хеш-сумм.
Убедительная просьба с жалобами обращаться напрямую к пользователю, разместившему торрент файл.

Вверх