Loading...
Error

Джульетта / Julieta (Педро Альмодовар) [2016 г., драма, мелодрама, HDRip] Dub (Line)

Статистика раздачи
Размер:  1,37 GB   |    Зарегистрирован:  3 месяца 18 дней   |    Скачан:  17 раз

Полного источника не было: 10 дней

Сидов:  0  |  0 KB/s  ]   Личеров:  0  |  0 KB/s  ]

* - сиды/пиры с внешних источников

   
 
Автор Сообщение

makkol Пол:Муж

15-Авг-2016 11:25

Джульетта / Julieta


Год выпуска: 2016
Жанр: драма, мелодрама
Производство: Испания [Canal+ France, Televisión Española]
Режиссер: Педро Альмодовар
В ролях: Адриана Угарте, Росси де Пальма, Инма Куэста, Мишель Хеннер, Эмма Суарес, Даниэль Грао, Дарио Грандинетти, Натали Поса, Хорхе Побес
Сюжет фильма:
Дочь Джульетты таинственным образом исчезает. В попытке отыскать её следы она возвращается в Мадрид и вспоминает свою бурную юность, любовь и страшную трагедию, которая отдалила её от дочери. Призрак прошлого терзает её в настоящем...

  • Мировая премьера: 8 апреля 2016
  • Российская премьера: 4 августа 2016


Качество видео: HDRip

Продолжительность: 01:38:58
Формат: AVI
Видео: XviD, 720x384 (1.85:1), 24.000 fps, 1589 kbps
Аудио: русский, дублированный (чистый звук), AC3 2.0, 48 kHz, 384 kbps

Код:

Формат                                   : AVI
Формат/Информация                        : Audio Video Interleave
Размер файла                             : 1,37 Гбайт
Продолжительность                        : 1 ч. 38 м.
Общий поток                              : 1982 Кбит/сек
Программа кодирования                    : VirtualDubMod 1.5.10.2 (build 2540/release)
Библиотека кодирования                   : VirtualDubMod build 2540/release

Видео
Идентификатор                            : 0
Формат                                   : MPEG-4 Visual
Профиль формата                          : Advanced Simple@L5
Параметр BVOP формата                    : 2
Параметр QPel формата                    : Нет
Параметр GMC формата                     : Без точки перехода
Параметр матрицы формата                 : Выборочная
Идентификатор кодека                     : XVID
Идентификатор кодека/Подсказка           : XviD
Продолжительность                        : 1 ч. 38 м.
Битрейт                                  : 1589 Кбит/сек
Ширина                                   : 720 пикселей
Высота                                   : 384 пикселя
Соотношение сторон                       : 1,85:1
Частота кадров                           : 24,000 кадра/сек
Цветовое пространство                    : YUV
Субдискретизация насыщенности            : 4:2:0
Битовая глубина                          : 8 бит
Тип развёртки                            : Прогрессивная
Метод сжатия                             : С потерями
Бит/(Пиксели*Кадры)                      : 0.239
Размер потока                            : 1,10 Гбайт (80%)
Библиотека кодирования                   : XviD 1.2.1 (UTC 2008-12-04)

Аудио
Идентификатор                            : 1
Формат                                   : AC-3
Формат/Информация                        : Audio Coding 3
Расширение режима                        : CM (complete main)
Параметр Endianness формата              : Big
Идентификатор кодека                     : 2000
Продолжительность                        : 1 ч. 38 м.
Вид битрейта                             : Постоянный
Битрейт                                  : 384 Кбит/сек
Каналы                                   : 2 канала
Расположение каналов                     : Front: L R
Частота                                  : 48,0 КГц
Битовая глубина                          : 16 бит
Метод сжатия                             : С потерями
Размер потока                            : 271 Мбайт (19%)
Выравнивание                             : Разделение по промежуткам
Продолжительность промежутка             : 42  мс. (1,00 видеокадр)
Время предзагрузки промежутка            : 500  мс.
Присутствует реклама


picpicpicpicpic
Для увеличения картинки щелкните мышкой по превью

Этот торрент недоступен для скачивания без регистрации, однако доступен по публичной magnet-ссылке (источники с публичных трекеров). Перед использованием ссылки прочтите, пожалуйста Пользовательское соглашение, а также как можно дольше оставайтесь на раздаче! Для того, чтобы скачать сам торрент-файл (который видит больше источников), а также для того, чтобы поблагодарить релизера, вам необходимо зарегистрироваться. Если регистрироваться лень - вы можете также попробовать скачать релиз по нашим партнерским ссылкам ниже.

[underverse.su].t69078.torrent
Трекер: Зарегистрирован   [ 15.08.2016 11:25 ]  

Статус: T временная (by makkol at 15.08.2016 22:53)
Поблагодарили: пока никто не поблагодарил...
Тип торрента: публичный - доступные источники с открытых трекеров: 
Размер: 1,37 GB (занимает 0,31 DVDR, для записи нужно 1 болванка DVDR/RW)
 
 
Похожие темы
Форум Тема Автор Торрент Отв. Посл. сооб.
T Зарубежное кино [DVDRip, Low-Res HDRip, и т.д.] Джульетта / Julieta (Педро Альмодовар) [2016 г., драма, мелодрама, HDRip] Dub (звук с TS) 90ytr90
40 | 0

0 | 954

9

08.08.2016 15:43

T Зарубежное кино [HDDVDRip / BDRip / WEB-DL / HDTV 1080/720р] Джульетта / Julieta (Педро Альмодовар) [2016 г., драма, мелодрама, BDRip 720p] Dub (Line) makkol
19 | 1

0 | 362

7

15.08.2016 11:32

T Зарубежное кино [HDDVDRip / BDRip / WEB-DL / HDTV 1080/720р] Джульетта / Julieta (Педро Альмодовар) [2016 г., драма, мелодрама, BDRip 1080p] Dub (Line) makkol
9 | 0

0 | 415

6

15.08.2016 11:38


Яндекс.Метрика powered by Sphinx


В Н И М А Н И Е
Сайт не распространяет и не хранит электронные версии произведений, а лишь бесплатно и без коммерческой выгоды (не требуя взамен платы,
SMS и т.д.) предоставляет доступ к создаваемому пользователями каталогу ссылок на торрент-файлы, которые содержат только списки хеш-сумм.
Убедительная просьба с жалобами обращаться напрямую к пользователю, разместившему торрент файл.

Вверх