Loading...
Error

Сокровища Инда / Treasures of the Indus (1-3 серии из 3) / (Хуг Томсон) [2015 г., документальный, путешествие, история, SatRip] DVO

Статистика раздачи
Размер:  1,81 GB   |    Зарегистрирован:  3 месяца 5 дней   |    Скачан:  1 раз

Полного источника не было: 17 часов

Сидов:  0  |  0 KB/s  ]   Личеров:  0  |  0 KB/s  ]

* - сиды/пиры с внешних источников

   
 
Автор Сообщение

ARI71 Пол:Муж

14-Авг-2016 15:45

Сокровища Инда / Treasures of the Indus (1-3 серии из 3)


Год выпуска: 2015
Жанр: документальный, путешествие, история
Страна: Великобритания Tern Television Production Ltd for BBC
Режиссер: Хуг Томсон
Ведущая: Сона Датта
Сюжет фильма:
Перед нами могучая река Инд, давшая название целому субконтиненту. По этой реке мы отправимся на 5000 лет назад в древнюю Индию, чтобы найти скрытые сокровища. На берегах Инда развивались древние цивилизации. Мы откроем утраченную буддийскую культуру северного Пакистана, насладимся расцветом архитектуры империи великих моголов и причудливыми храмами южной Индии. Каждая культура создавала свои шедевры. В этом мини сериале доктор Сона Датта, историк искусства и куратор Британского музея, расскажет нам о создателях этих шедевров.
Качество видео: SatRip

Продолжительность: 3 x ~ 00:43:00
Формат: AVI
Видео: XviD, 720x400, ~1797 kbps
Аудио: русский, двухголосый (профессиональный), AC3 2.0, ~192.00 kbps
(тех. данные всех серий идентичны)

Код:

Общее
Полное имя : D:\BBC_Treasures of the Indus\01_Pakistan_Unveiled.avi
Формат : AVI
Формат/Информация : Audio Video Interleave
Размер файла : 614 Мбайт
Продолжительность : 42 м.
Общий поток : 1996 Кбит/сек
Программа кодирования : TMPGEnc Video Mastering Works 6 Trial with Movie Plug-in Version. 6.1.5.26
Библиотека кодирования : TMPGEnc Video Mastering Works 6 Trial with Movie Plug-in Version. 6.1.5.26

Видео
Идентификатор : 0
Формат : MPEG-4 Visual
Профиль формата : Advanced Simple@L5
Параметр BVOP формата : 2
Параметр QPel формата : Нет
Параметр GMC формата : Без точки перехода
Параметр матрицы формата : Default (H.263)
Режим смешивания : Сжатый битовый поток
Идентификатор кодека : XVID
Идентификатор кодека/Подсказка : XviD
Продолжительность : 42 м.
Битрейт : 1797 Кбит/сек
Ширина : 720 пикселей
Высота : 400 пикселей
Соотношение сторон : 16:9
Частота кадров : 25,000 кадров/сек
Цветовое пространство : YUV
Субдискретизация насыщенности : 4:2:0
Битовая глубина : 8 бит
Тип развёртки : Прогрессивная
Метод сжатия : С потерями
Бит/(Пиксели*Кадры) : 0.250
Размер потока : 553 Мбайт (90%)
Библиотека кодирования : XviD 73

Аудио
Идентификатор : 1
Формат : AC-3
Формат/Информация : Audio Coding 3
Расширение режима : CM (complete main)
Параметр Endianness формата : Big
Идентификатор кодека : 2000
Продолжительность : 42 м.
Вид битрейта : Постоянный
Битрейт : 192 Кбит/сек
Каналы : 2 канала
Расположение каналов : Front: L R
Частота : 48,0 КГц
Частота кадров : 31,250 кадров/сек (1536 spf)
Метод сжатия : С потерями
Размер потока : 59,0 Мбайт (10%)
Выравнивание : Соединение по промежуткам
Продолжительность промежутка : 333 мс. (8,34 видеокадров)
01. Тайны Пакистана / Pakistan Unveiled
02. Обратная сторона Тадж-Махала / The Other Side of the Taj Mahal
03. О богах и людях / Of Gods and Men
Автор Rip'а: skorpionN

Перевод осуществлен студией "Видеофильм ТВ"
picpicpicpicpic
Для увеличения картинки щелкните мышкой по превью

Этот торрент недоступен для скачивания без регистрации, однако доступен по публичной magnet-ссылке (источники с публичных трекеров). Перед использованием ссылки прочтите, пожалуйста Пользовательское соглашение, а также как можно дольше оставайтесь на раздаче! Для того, чтобы скачать сам торрент-файл (который видит больше источников), а также для того, чтобы поблагодарить релизера, вам необходимо зарегистрироваться. Если регистрироваться лень - вы можете также попробовать скачать релиз по нашим партнерским ссылкам ниже.

[underverse.su].t69495.torrent
Трекер: Зарегистрирован   [ 28.08.2016 09:36 ]  

Статус: проверено (by makkol at 28.08.2016 11:24)
Поблагодарили: пока никто не поблагодарил...
Тип торрента: публичный - доступные источники с открытых трекеров: 
Размер: 1,81 GB (занимает 0,41 DVDR, для записи нужно 1 болванка DVDR/RW)
 
 
Похожие темы
Форум Тема Автор Торрент Отв. Посл. сооб.
Зарубежное кино [DVDRip, Low-Res HDRip, и т.д.] Сокровища чёрного ягуара / Treasure of the Black Jaguar (Майк Брюс) [2010 г., Боевик, приключения, HDTVRip] DVO Чертёнок
4 | 0

0 | 1629

24

04.10.2013 17:43

T Зарубежное кино [DVDRip, Low-Res HDRip, и т.д.] Сокровища государства / Treasure state (Эндрю Уист) [2013 г., приключения, семейный, WEB-DLRip] MVO makkol
1 | 0

0 | 585

5

26.06.2016 22:30

Классика зарубежного кино Сокровища Сьерра Мадре / The Treasure of the Sierra Madre (Джон Хьюстон) [1948 г., боевик, драма, приключения, вестерн, HDRip] deny-BOY
0 | 0

0 | 748

4

11.04.2012 11:48

Наше кино [DVDRip, Low-Res HDRip, и т.д.] Сокровища О.К. (Дмитрий Коробкин) [2013 г., комедия, приключения, WebRip] TERRAN
243 | 3

0 | 1504

101

16.06.2013 11:52

Наше кино [DVDRip, Low-Res HDRip, и т.д.] Сокровища О.К. (Дмитрий Коробкин) [2013 г., комедия, приключения, SATRip] 90ytr90
0 | 0

0 | 996

21

10.11.2013 08:36

* Наше кино [DVDRip, Low-Res HDRip, и т.д.] Сокровища О.К. (Дмитрий Коробкин) [2013 г., комедия, приключения, BDRip] 90ytr90

1 | 1878

28.11.2013 18:51

BBC Сокровища Древней Греции / Treasures of Ancient Greece (Дэвид Винсент) / (1-3 серии из 3) [2015 г., документальный, исторический, искусство, HDTVRip] VO ARI71
18 | 1

0 | 856

4

20.06.2016 07:42

T Зарубежное кино [HDDVDRip / BDRip / WEB-DL / HDTV 1080/720р] Сокровища государства / Treasure state (Эндрю Уист) [2013 г., приключения, семейный, WEB-DL 1080p] MVO makkol
1 | 0

0 | 609

4

26.06.2016 22:39

Наше кино [HDDVDRip / BDRip / WEB-DL / HDTV 1080/720р] Сокровища О.К. (Дмитрий Коробкин) [2013 г., комедия, приключения, BDRip 720p] 90ytr90
1 | 0

0 | 451

12

28.11.2013 18:09

Другие Аркады Сокровища Монтесумы 4 [2013 г., Аркады / три в ряд] Ru/En [P] centoriuse
1 | 0

0 | 1338

33

28.09.2013 12:29

ARI71 Пол:Муж

28-Авг-2016 09:49

Приятного всем просмотра! Добавлены заключительные 2-я и 3-я серии данного релиза. Обновите пож-та торрент-файл!

.

На этом обновление раздачи завершено!

Яндекс.Метрика powered by Sphinx


В Н И М А Н И Е
Сайт не распространяет и не хранит электронные версии произведений, а лишь бесплатно и без коммерческой выгоды (не требуя взамен платы,
SMS и т.д.) предоставляет доступ к создаваемому пользователями каталогу ссылок на торрент-файлы, которые содержат только списки хеш-сумм.
Убедительная просьба с жалобами обращаться напрямую к пользователю, разместившему торрент файл.

Вверх