Loading...
Error

Женский гений живописи / The Story of Women & Art (1-3 серии из 3) / (Джон Ходжсон) [2014 г., документальный, живопись, история, всемирное искусство, HDTVRip 720p] Dub

Статистика раздачи
Размер:  4,26 GB   |    Зарегистрирован:  6 месяцев   |    Скачан:  2 раза

Полного источника не было: 6 месяцев

Сидов:  0  |  0 KB/s  ]   Личеров:  0  |  0 KB/s  ]

* - сиды/пиры с внешних источников

   
 
Автор Сообщение

ARI71 Пол:Муж

14-Авг-2016 14:10

Женский гений живописи / The Story of Women & Art (1-3 серии из 3)


Год выпуска: 2014
Жанр: документальный, живопись, история, всемирное искусство
Страна: Великобритания Matchlight for BBC Scotland
Режиссер: Джон Ходжсон
Ведущая: Аманда Викери
Сюжет фильма:
Профессор Аманда Викери расскажет удивительные истории о талантливых женщинах, которые превзошли обстоятельства непреодолимой силы ради того, чтобы посвятить себя искусству. Сначала она расскажет о художницах эпохи Ренессанса, в частности об итальянской художнице Лавинии Фонтана, одной из немногих женщин, чьи работы находятся в галерее Уффици. Затем вместе с Амандой мы перенесемся в XVIII век и узнаем о французской художнице Элизабет Виже-Лебрен, которая имела огромный успех и создала более тысячи картин, находясь под патронатом самой Марии-Антуанетты. Далее Аманда Викери расскажет о том, как в XX веке женщины наравне с мужчинами начинают обучаться в художественных академиях. В программу также включено интервью с известной британской художницей Трейси Эмин.
Качество видео: HDTVRip 720p

Продолжительность: 3 x ~ 00:59:17
Формат: MKV
Видео: AVC (x264), 1280x720, ~3244 kbps
Аудио: русский, (дублированный), AC3 2.0, ~192.00 kbps
(тех. данные всех серий идентичны)

Код:

Общее
Уникальный идентификатор : 210077686318488073769033810091133909917 (0x9E0B7D9CBC29C42481BBD4AC2EE03B9D)
Полное имя : D:\BBC_The Story of Women and Art_720p\The Story of Women and Art_e01.mkv
Формат : Matroska
Версия формата : Version 4 / Version 2
Размер файла : 1,42 Гбайт
Продолжительность : 59 м.
Режим общего битрейта : Постоянный
Общий поток : 3438 Кбит/сек
Дата кодирования : UTC 2014-12-03 21:54:58
Программа кодирования : mkvmerge v7.3.0 ('Nouages') 64bit built on Oct 22 2014 18:53:34
Библиотека кодирования : libebml v1.3.0 + libmatroska v1.4.1

Видео
Идентификатор : 1
Формат : AVC
Формат/Информация : Advanced Video Codec
Профиль формата : High@L3.1
Параметр CABAC формата : Да
Параметр ReFrames формата : 3 кадра
Идентификатор кодека : V_MPEG4/ISO/AVC
Продолжительность : 59 м.
Вид битрейта : Постоянный
Битрейт : 3244 Кбит/сек
Номинальный битрейт : 3500 Кбит/сек / 3500 Кбит/сек
Ширина : 1280 пикселей
Высота : 720 пикселей
Соотношение сторон : 16:9
Режим частоты кадров : Постоянный
Частота кадров : 25,000 кадров/сек
Стандарт вещания : NTSC
Цветовое пространство : YUV
Субдискретизация насыщенности : 4:2:0
Битовая глубина : 8 бит
Тип развёртки : Прогрессивная
Бит/(Пиксели*Кадры) : 0.141
Размер потока : 1,34 Гбайт (94%)
Библиотека кодирования : x264 core 114
Настройки программы : cabac=1 / ref=3 / deblock=1:0:0 / analyse=0x3:0x113 / me=hex / subme=7 / psy=1 / psy_rd=1.00:0.00 / mixed_ref=1 / me_range=16 / chroma_me=1 / trellis=1 / 8x8dct=1 / cqm=2 / deadzone=21,11 / fast_pskip=1 / chroma_qp_offset=-2 / threads=6 / sliced_threads=0 / slices=1 / nr=0 / decimate=1 / interlaced=0 / constrained_intra=0 / bframes=3 / b_pyramid=0 / b_adapt=1 / b_bias=0 / direct=1 / weightb=1 / open_gop=0 / weightp=2 / keyint=250 / keyint_min=25 / scenecut=40 / intra_refresh=0 / rc_lookahead=40 / rc=cbr / mbtree=1 / bitrate=3500 / ratetol=1.0 / qcomp=0.60 / qpmin=3 / qpmax=69 / qpstep=4 / vbv_maxrate=3500 / vbv_bufsize=3489 / nal_hrd=cbr / ip_ratio=1.40 / aq=1:1.00
Default : Да
Forced : Нет
Цветовой диапазон : Limited
Основные цвета : BT.709
Характеристики трансфера : BT.709
Коэффициенты матрицы : BT.709

Аудио
Идентификатор : 2
Формат : AC-3
Формат/Информация : Audio Coding 3
Расширение режима : CM (complete main)
Параметр Endianness формата : Big
Идентификатор кодека : A_AC3
Продолжительность : 59 м.
Вид битрейта : Постоянный
Битрейт : 192 Кбит/сек
Каналы : 2 канала
Расположение каналов : Front: L R
Частота : 48,0 КГц
Частота кадров : 31,250 кадров/сек (1536 spf)
Метод сжатия : С потерями
Размер потока : 81,4 Мбайт (6%)
Default : Да
Forced : Нет
Автор Rip'а: skorpionN

Документальный дубляж (SDI Media):
Голос рассказчика - полный дубляж
Интервью - слышна оригинальная речь

Перевод: Одноголосый закадровый - "SDI Media", перевод Татьяны Вишневской текст читала Виктория Бабанова
01 серия
Профессор Аманда Викери отправляется в Италию, а затем в Нидерланды, чтобы подробнее узнать о женщинах-художницах эпохи Ренессанса.
02 серия
Профессор Аманда Викери расскажет о женщинах-художницах 18-го века, обратив особое внимание на индустриальную революцию в Великобритании и на двор Марии-Антуанетты.
03 серия
Профессор Аманда Викери расскажет о новых возможностях, которые получили женщины в XX веке. Это было время, когда западные художницы перешли границы дозволенного в искусстве.
picpicpicpicpic
Для увеличения картинки щелкните мышкой по превью

Этот торрент недоступен для скачивания без регистрации, однако доступен по публичной magnet-ссылке (источники с публичных трекеров). Перед использованием ссылки прочтите, пожалуйста Пользовательское соглашение, а также как можно дольше оставайтесь на раздаче! Для того, чтобы скачать сам торрент-файл (который видит больше источников), а также для того, чтобы поблагодарить релизера, вам необходимо зарегистрироваться. Если регистрироваться лень - вы можете также попробовать скачать релиз по нашим партнерским ссылкам ниже.

[underverse.su].t69066.torrent
Трекер: Зарегистрирован   [ 14.08.2016 14:10 ]  

Статус: проверено (by makkol at 14.08.2016 21:09)
Поблагодарили: пока никто не поблагодарил...
Тип торрента: публичный - доступные источники с открытых трекеров: 
Размер: 4,26 GB (занимает 0,97 DVDR, для записи нужно 1 болванка DVDR/RW)
 
 

Яндекс.Метрика powered by Sphinx


В Н И М А Н И Е
Сайт не распространяет и не хранит электронные версии произведений, а лишь бесплатно и без коммерческой выгоды (не требуя взамен платы,
SMS и т.д.) предоставляет доступ к создаваемому пользователями каталогу ссылок на торрент-файлы, которые содержат только списки хеш-сумм.
Убедительная просьба с жалобами обращаться напрямую к пользователю, разместившему торрент файл.

Вверх