Loading...
Error

Том и Гек / Tom und Hacke (Норберт Лехнер) [2012 г., семейный, приключения, DVDRip] VO + Original + Subs

Статистика раздачи
Размер:  1,5 GB   |    Зарегистрирован:  3 месяца 21 день   |    Скачан:  1 раз

Полного источника не было: 3 часа

Сидов:  0  |  0 KB/s  ]   Личеров:  0  |  0 KB/s  ]

* - сиды/пиры с внешних источников

   
 
Автор Сообщение

makkol Пол:Муж

14-Авг-2016 12:38

Том и Гек / Tom und Hacke


Год выпуска: 2012
Жанр: семейный, приключения
Производство: Германия , Австрия [Kevin Lee Filmgesellschaft, Rommel Film, Star Film]
Режиссер: Норберт Лехнер
В ролях: Бенедикт Вебер, Ксавер-Мария Бреннер, Юлия Форстнер, Янник Куль, Симон Майндль, Франциска Вайс, Франц Бухризер, Томас Баммер, Фриц Карл, Гётц Бюргер, Николай Дончев, Флориан Иннеребнер, Ганс Эшер
Сюжет фильма:
Еще одна экранизация произведения Марка Твена о приключениях Тома Сойера и Гекльберри Финна. Правда, на сей раз персонажи по воле создателей фильма перенесены в послевоенную Германию.

  • Мировая премьера: 1 июля 2012


Качество видео: DVDRip

Продолжительность: 01:34:10
Формат: AVI
Видео: XviD, 720x304 (2.35:1), 25.000 fps, 1848 kbps
Аудио #1: русский, любительский одноголосый закадровый (Вячеслав Прошин), AC3 2.0, 48 kHz, 192 kbps
Аудио #2: немецкий, оригинал, AC3 2.0, 48 kHz, 224 kbps
Субтитры: русские (Алексей Крылов), английские, немецкие внешние, SRT

Код:

Формат                                   : AVI
Формат/Информация                        : Audio Video Interleave
Размер файла                             : 1,50 Гбайт
Продолжительность                        : 1 ч. 34 м.
Общий поток                              : 2279 Кбит/сек
Программа кодирования                    : VirtualDubModRus 1.5.10.2 (build 2542/release)
Библиотека кодирования                   : VirtualDubMod build 2542/release

Видео
Идентификатор                            : 0
Формат                                   : MPEG-4 Visual
Профиль формата                          : Advanced Simple@L5
Параметр BVOP формата                    : Нет
Параметр QPel формата                    : Нет
Параметр GMC формата                     : Без точки перехода
Параметр матрицы формата                 : Выборочная
Идентификатор кодека                     : XVID
Идентификатор кодека/Подсказка           : XviD
Продолжительность                        : 1 ч. 34 м.
Битрейт                                  : 1848 Кбит/сек
Ширина                                   : 720 пикселей
Высота                                   : 304 пикселя
Соотношение сторон                       : 2,35:1
Частота кадров                           : 25,000 кадров/сек
Цветовое пространство                    : YUV
Субдискретизация насыщенности            : 4:2:0
Битовая глубина                          : 8 бит
Тип развёртки                            : Прогрессивная
Метод сжатия                             : С потерями
Бит/(Пиксели*Кадры)                      : 0.338
Размер потока                            : 1,22 Гбайт (81%)
Библиотека кодирования                   : XviD 58

Аудио #1
Идентификатор                            : 1
Формат                                   : AC-3
Формат/Информация                        : Audio Coding 3
Расширение режима                        : CM (complete main)
Параметр Endianness формата              : Big
Идентификатор кодека                     : 2000
Продолжительность                        : 1 ч. 34 м.
Вид битрейта                             : Постоянный
Битрейт                                  : 192 Кбит/сек
Каналы                                   : 2 канала
Расположение каналов                     : Front: L R
Частота                                  : 48,0 КГц
Метод сжатия                             : С потерями
Размер потока                            : 129 Мбайт (8%)
Выравнивание                             : Разделение по промежуткам
Продолжительность промежутка             : 40  мс. (1,00 видеокадр)
Время предзагрузки промежутка            : 500  мс.

Аудио #2
Идентификатор                            : 2
Формат                                   : AC-3
Формат/Информация                        : Audio Coding 3
Расширение режима                        : CM (complete main)
Параметр Endianness формата              : Big
Идентификатор кодека                     : 2000
Продолжительность                        : 1 ч. 34 м.
Вид битрейта                             : Постоянный
Битрейт                                  : 224 Кбит/сек
Каналы                                   : 2 канала
Расположение каналов                     : Front: L R
Частота                                  : 48,0 КГц
Метод сжатия                             : С потерями
Размер потока                            : 151 Мбайт (10%)
Выравнивание                             : Разделение по промежуткам
Продолжительность промежутка             : 40  мс. (1,00 видеокадр)
Время предзагрузки промежутка            : 500  мс.
Релиз:

picpicpicpicpic
Для увеличения картинки щелкните мышкой по превью

Этот торрент недоступен для скачивания без регистрации, однако доступен по публичной magnet-ссылке (источники с публичных трекеров). Перед использованием ссылки прочтите, пожалуйста Пользовательское соглашение, а также как можно дольше оставайтесь на раздаче! Для того, чтобы скачать сам торрент-файл (который видит больше источников), а также для того, чтобы поблагодарить релизера, вам необходимо зарегистрироваться. Если регистрироваться лень - вы можете также попробовать скачать релиз по нашим партнерским ссылкам ниже.

[underverse.su].t69065.torrent
Трекер: Зарегистрирован   [ 14.08.2016 12:38 ]  

Статус: проверено (by Паукан at 15.08.2016 06:25)
Поблагодарили: пока никто не поблагодарил...
Тип торрента: публичный - доступные источники с открытых трекеров: 
Размер: 1,5 GB (занимает 0,34 DVDR, для записи нужно 1 болванка DVDR/RW)
 
 

Яндекс.Метрика powered by Sphinx


В Н И М А Н И Е
Сайт не распространяет и не хранит электронные версии произведений, а лишь бесплатно и без коммерческой выгоды (не требуя взамен платы,
SMS и т.д.) предоставляет доступ к создаваемому пользователями каталогу ссылок на торрент-файлы, которые содержат только списки хеш-сумм.
Убедительная просьба с жалобами обращаться напрямую к пользователю, разместившему торрент файл.

Вверх