Loading...
Error

Гримм / Grimm / 5 сезон (1-22 серии из 22) (Норберто Барба, Терренс О’Хара, Эрик Ланёвилль) [2015-2016 г., фэнтези, ужасы, драма, детектив, WEB-DLRip] MVO (LostFilm)

Статистика раздачи
Размер:  9,67 GB   |    Зарегистрирован:  3 месяца 22 дня   |    Скачан:  5 раз

Полного источника не было: 15 дней

Сидов:  0  |  0 KB/s  ]   Личеров:  0  |  0 KB/s  ]

* - сиды/пиры с внешних источников

   
 
Автор Сообщение

Veta_El Пол:Жен

14-Авг-2016 11:10

Гримм / Grimm / 5 сезон (1-22 серии из 22)


Год выпуска: 2015-2016
Жанр: фэнтези, ужасы, драма, детектив
Страна: США
Режиссер: Норберто Барба, Терренс О’Хара, Эрик Ланёвилль
В ролях: Дэвид Джинтоли, Битси Таллок, Сайлас Уэйр Митчелл, Расселл Хорнсби, Саша Ройз, Регги Ли, Клэр Коффи, Бри Тёрнер, Роберт Бланш, Жаклин Тобони
Сюжет фильма:
Действие происходит в современном Портленде, где детектив из отдела убийств узнаёт, что он является потомком группы охотников, известных как «Гриммы», которые сражаются, чтобы сохранить человечество в безопасности от сверхъестественных существ. Узнав о своей судьбе, и том, что он является последним из своего рода, он должен защитить каждую живую душу от зловещих персонажей сборника сказок, которые проникли в реальный мир.
В 5 сезоне сериала «Гримм»: Ник в бешенстве после всего пережитого. Смерть Джульетты и убийство матери заставляют его выбирать новый путь. Ему предстоит решить в каком направлении теперь двигаться и его выбор отразится на всей команде. Ем временем у Адалинды начинаются роды и ее привозят в больницу, а в Портленде существа затевают что-то новое. В скором времени они вновь покажут свою силу.

Качество видео: WEB-DLRip

Продолжительность: 22 x ~00:43:07
Формат: avi
Видео: XviD, 720x400, ~1170 kbps
Аудио: русский, многоголосый закадровый [профессиональный], MP3 2.0, 189 kbps

Код:

General
Complete name                    : \Downloads\Grimm - Season 5 (LostFilm)\Grimm.S05E01.rus.LostFilm.TV.avi
Format                           : AVI
Format/Info                      : Audio Video Interleave
File size                        : 423 MiB
Duration                         : 43mn 7s
Overall bit rate                 : 1 373 Kbps
Writing application              : Nandub v1.0rc2
Writing library                  : Nandub build 1853/release

Video
ID                               : 0
Format                           : MPEG-4 Visual
Format profile                   : Streaming Video@L1
Format settings, BVOP            : No
Format settings, QPel            : No
Format settings, GMC             : No warppoints
Format settings, Matrix          : Default (H.263)
Codec ID                         : XVID
Codec ID/Hint                    : XviD
Duration                         : 43mn 7s
Bit rate                         : 1 171 Kbps
Width                            : 720 pixels
Height                           : 400 pixels
Display aspect ratio             : 16/9
Frame rate                       : 23.976 fps
Resolution                       : 24 bits
Colorimetry                      : 4:2:0
Scan type                        : Progressive
Bits/(Pixel*Frame)               : 0.170
Stream size                      : 361 MiB (85%)
Writing library                  : XviD 1.2.1 (UTC 2008-12-04)

Audio
ID                               : 1
Format                           : MPEG Audio
Format version                   : Version 1
Format profile                   : Layer 3
Codec ID                         : 55
Codec ID/Hint                    : MP3
Duration                         : 43mn 7s
Bit rate mode                    : Variable
Bit rate                         : 189 Kbps
Nominal bit rate                 : 192 Kbps
Channel(s)                       : 2 channels
Sampling rate                    : 48.0 KHz
Resolution                       : 16 bits
Stream size                      : 58.4 MiB (14%)
Alignment                        : Aligned on interleaves
Interleave, duration             : 24 ms (0.58 video frame)
Interleave, preload duration     : 430 ms
Writing library                  : LAME3.97b
Encoding settings                : -m j -V 4 -q 3 -lowpass 18.6 --abr 192

Релиз группы:

picpicpicpicpic
Для увеличения картинки щелкните мышкой по превью

Этот торрент недоступен для скачивания без регистрации, однако доступен по публичной magnet-ссылке (источники с публичных трекеров). Перед использованием ссылки прочтите, пожалуйста Пользовательское соглашение, а также как можно дольше оставайтесь на раздаче! Для того, чтобы скачать сам торрент-файл (который видит больше источников), а также для того, чтобы поблагодарить релизера, вам необходимо зарегистрироваться. Если регистрироваться лень - вы можете также попробовать скачать релиз по нашим партнерским ссылкам ниже.

[underverse.su].t69062.torrent
Трекер: Зарегистрирован   [ 14.08.2016 11:10 ]  

Статус: проверено (by makkol at 14.08.2016 11:41)
Поблагодарили: 1 человек
Тип торрента: публичный - доступные источники с открытых трекеров: 
Размер: 9,67 GB (занимает 2,21 DVDR, для записи нужно 3 болванки DVDR/RW)
 
 
Похожие темы
Форум Тема Автор Торрент Отв. Посл. сооб.
Зарубежные сериалы Гримм / Grimm / Сезоны 1-4 (1-88 серии из 88) (Норберто Барба, Терренс О’Хара, Эрик Ланёвилль) [2011-2015 г., ужасы, фэнтези, драма, детектив, WEB-DLRip] MVO older
7 | 4

0 | 524

5

09.09.2015 19:40

Зарубежные сериалы [BD / Remux / BDRip / WEB-DL / HDTV 1080/720р] Гримм / Grimm / Сезон 2 / Серия 1-17 (22) (Марк Баклэнд) [2012-2013 г., Ужасы, фэнтези, драма, WEB-DL 1080p] TERRAN
0 | 0

1 | 1307

3

10.04.2013 18:44


Яндекс.Метрика powered by Sphinx


В Н И М А Н И Е
Сайт не распространяет и не хранит электронные версии произведений, а лишь бесплатно и без коммерческой выгоды (не требуя взамен платы,
SMS и т.д.) предоставляет доступ к создаваемому пользователями каталогу ссылок на торрент-файлы, которые содержат только списки хеш-сумм.
Убедительная просьба с жалобами обращаться напрямую к пользователю, разместившему торрент файл.

Вверх