Loading...
Error

Угли / Embers (Клэр Керри) [2015 г., фантастика, драма, DVDRip] VO

Статистика раздачи
Размер:  1007 MB   |    Зарегистрирован:  3 месяца 23 дня   |    Скачан:  11 раз

Полного источника не было: 1 месяц 18 дней

Сидов:  0  |  0 KB/s  ]   Личеров:  0  |  0 KB/s  ]

* - сиды/пиры с внешних источников

   
 
Автор Сообщение

makkol Пол:Муж

13-Авг-2016 22:35

Угли / Embers


Год выпуска: 2015
Жанр: фантастика, драма
Производство: Польша , США [Bunker Features, Chaotic Good, Papaya Films]
Режиссер: Клэр Керри
В ролях: Джейсон Риттер, Ива Гочева, Грета Фернандез, Такер Смоллвуд, Карл Глусман, Роберто Котс, Доминик Суэйн, Мэтью Гулиш, Деррик Аги
Сюжет фильма:
В фильме показаны пять разных тесно переплетенных между собой историй о людях, которые выжили после того, как нашу планету охватила ужасная неврологическая эпидемия. Героям фильма предстоит научиться жить в новом мире. Мире без памяти. Их будущее не имеет прошлого, ведь из воспоминаний остались лишь мимолетные обрывки. Теперь же им предстоит налаживать связь друг с другом, чтобы суметь вновь осознать всю радость бытия...

  • Мировая премьера: 18 сентября 2015


Качество видео: DVDRip

Продолжительность: 01:26:00
Формат: AVI
Видео: XviD, 720x384 (1.85:1), 23.976 fps, 1435 kbps
Аудио: русский, любительский одноголосый закадровый, MP3 2.0, 48 kHz, 192 kbps

Код:

Формат                                   : AVI
Формат/Информация                        : Audio Video Interleave
Размер файла                             : 1007 Мбайт
Продолжительность                        : 1 ч. 26 м.
Общий поток                              : 1636 Кбит/сек
Программа кодирования                    : VirtualDubMod 1.5.10.2 (build 2540/release)
Библиотека кодирования                   : VirtualDubMod build 2540/release

Видео
Идентификатор                            : 0
Формат                                   : xvid
Идентификатор кодека                     : xvid
Продолжительность                        : 1 ч. 26 м.
Битрейт                                  : 1435 Кбит/сек
Ширина                                   : 720 пикселей
Высота                                   : 384 пикселя
Соотношение сторон                       : 1,85:1
Частота кадров                           : 23,976 (23976/1000) кадра/сек
Бит/(Пиксели*Кадры)                      : 0.216
Размер потока                            : 883 Мбайт (88%)

Аудио
Идентификатор                            : 1
Формат                                   : MPEG Audio
Версия формата                           : Version 1
Профиль формата                          : Layer 3
Режим                                    : Joint stereo
Расширение режима                        : MS Stereo
Идентификатор кодека                     : 55
Идентификатор кодека/Подсказка           : MP3
Продолжительность                        : 1 ч. 26 м.
Вид битрейта                             : Постоянный
Битрейт                                  : 192 Кбит/сек
Каналы                                   : 2 канала
Частота                                  : 48,0 КГц
Метод сжатия                             : С потерями
Размер потока                            : 118 Мбайт (12%)
Выравнивание                             : Соединение по промежуткам
Продолжительность промежутка             : 42  мс. (1,00 видеокадр)
Время предзагрузки промежутка            : 504  мс.
Перевод: Catbomb
Озвучивание: Павел Морозов aka PashaUp
picpicpicpicpic
Для увеличения картинки щелкните мышкой по превью

Этот торрент недоступен для скачивания без регистрации, однако доступен по публичной magnet-ссылке (источники с публичных трекеров). Перед использованием ссылки прочтите, пожалуйста Пользовательское соглашение, а также как можно дольше оставайтесь на раздаче! Для того, чтобы скачать сам торрент-файл (который видит больше источников), а также для того, чтобы поблагодарить релизера, вам необходимо зарегистрироваться. Если регистрироваться лень - вы можете также попробовать скачать релиз по нашим партнерским ссылкам ниже.

[underverse.su].t69051.torrent
Трекер: Зарегистрирован   [ 13.08.2016 22:35 ]  

Статус: проверено (by Паукан at 15.08.2016 06:25)
Поблагодарили: 1 человек
Тип торрента: публичный - доступные источники с открытых трекеров: 
Размер: 1007 MB (занимает 0,22 DVDR, для записи нужно 1 болванка DVDR/RW)
 
 

Яндекс.Метрика powered by Sphinx


В Н И М А Н И Е
Сайт не распространяет и не хранит электронные версии произведений, а лишь бесплатно и без коммерческой выгоды (не требуя взамен платы,
SMS и т.д.) предоставляет доступ к создаваемому пользователями каталогу ссылок на торрент-файлы, которые содержат только списки хеш-сумм.
Убедительная просьба с жалобами обращаться напрямую к пользователю, разместившему торрент файл.

Вверх