Loading...
Error

Секретный кубинский риф / Cuba's Secret Reef (Граем Дуане) [2015 г., документальный, природа, флора, фауна, HDTVRip] Dub

Статистика раздачи
Размер:  701 MB   |    Зарегистрирован:  3 месяца 25 дней   |    Скачан:  3 раза

Полного источника не было: 5 дней

Сидов:  0  |  0 KB/s  ]   Личеров:  0  |  0 KB/s  ]

* - сиды/пиры с внешних источников

   
 
Автор Сообщение

ARI71 Пол:Муж

13-Авг-2016 18:52

Секретный кубинский риф / Cuba's Secret Reef


Год выпуска: 2015
Жанр: документальный, природа, флора, фауна
Страна: США National Geographic, Shark Bay Films Production and SNI/SI Networks L.L.C
Режиссер: Граем Дуане
Сюжет фильма:
Есть в Карибском море место, которое можно смело назвать раем для морских животных. Это Хардинес-де-ла-Рейна, что находится на Кубе. Тому, что это место оказалось практически свободным от человеческого вмешательства, в некоторой степени способствовала, как это не парадоксально звучит, 50-летняя политическая изоляция Кубы США. Подводная среда сохранилась в первозданном виде, наверное еще и потому, что здесь любил заниматься дайвингом Фидель Кастро. И сюда долгое время никто не мог попасть. Побывав в этих местах вы как-будто возвращаетесь назад во времени. Здесь обитают экзотические виды, которые редко встречаются в других местах региона. Островной шельф украшает 3400 км коралловых рифов, которые прекрасно сохранились и известны во всем мире своими размерами и богатством животного мира. Здесь, наряду с 58 разновидностями кораллов, 160 видами губок и 68 типов горгонарий, можно увидеть 1000 разных видов рыб и 1100 видов ракообразных. Это потерянный парк Юрского периода Карибского моря. Но долго ли просуществует эта нетронутая дикая природа?
Качество видео: HDTVRip

Продолжительность: 00:43:58
Формат: AVI
Видео: DivX 5, 720x400, ~2028 kbps
Аудио: русский, (дублированный), AC3 2.0, ~192.00 kbps

Код:

Общее
Полное имя : D:\Cuba s Secret Reef_HDTVRip.GIPERWAREZ.avi
Формат : AVI
Формат/Информация : Audio Video Interleave
Размер файла : 701 Мбайт
Продолжительность : 43 м.
Общий поток : 2230 Кбит/сек
Программа кодирования : VirtualDubMod 1.5.10.3 | www.virtualdub-fr.org || (build 2550/release)
Библиотека кодирования : VirtualDubMod build 2550/release

Видео
Идентификатор : 0
Формат : MPEG-4 Visual
Профиль формата : Advanced Simple@L5
Параметр BVOP формата : 1
Параметр QPel формата : Нет
Параметр GMC формата : Без точки перехода
Параметр матрицы формата : Default (MPEG)
Идентификатор кодека : DX50
Идентификатор кодека/Подсказка : DivX 5
Продолжительность : 43 м.
Битрейт : 2028 Кбит/сек
Ширина : 720 пикселей
Высота : 400 пикселей
Соотношение сторон : 16:9
Частота кадров : 25,000 кадров/сек
Цветовое пространство : YUV
Субдискретизация насыщенности : 4:2:0
Битовая глубина : 8 бит
Тип развёртки : Прогрессивная
Метод сжатия : С потерями
Бит/(Пиксели*Кадры) : 0.282
Размер потока : 638 Мбайт (91%)
Библиотека кодирования : XviD 1.2.1 (UTC 2008-12-04)

Аудио
Идентификатор : 1
Формат : AC-3
Формат/Информация : Audio Coding 3
Расширение режима : CM (complete main)
Параметр Endianness формата : Big
Идентификатор кодека : 2000
Продолжительность : 43 м.
Вид битрейта : Постоянный
Битрейт : 192 Кбит/сек
Каналы : 2 канала
Расположение каналов : Front: L R
Частота : 48,0 КГц
Частота кадров : 31,250 кадров/сек (1536 spf)
Метод сжатия : С потерями
Размер потока : 60,4 Мбайт (9%)
Выравнивание : Разделение по промежуткам
Продолжительность промежутка : 40 мс. (1,00 видеокадр)
Время предзагрузки промежутка : 500 мс.
Релиз-группа:
Автор рипа: василий 23

Документальный дубляж (Велес):
Голос рассказчика - полный дубляж
Интервью - слышна оригинальная речь

Текст читал - Станислав Войнич
picpicpicpicpic
Для увеличения картинки щелкните мышкой по превью

Этот торрент недоступен для скачивания без регистрации, однако доступен по публичной magnet-ссылке (источники с публичных трекеров). Перед использованием ссылки прочтите, пожалуйста Пользовательское соглашение, а также как можно дольше оставайтесь на раздаче! Для того, чтобы скачать сам торрент-файл (который видит больше источников), а также для того, чтобы поблагодарить релизера, вам необходимо зарегистрироваться. Если регистрироваться лень - вы можете также попробовать скачать релиз по нашим партнерским ссылкам ниже.

[underverse.su].t69044.torrent
Трекер: Зарегистрирован   [ 13.08.2016 18:52 ]  

Статус: проверено (by makkol at 13.08.2016 21:24)
Поблагодарили: пока никто не поблагодарил...
Тип торрента: публичный - доступные источники с открытых трекеров: 
Размер: 701 MB (занимает 0,16 DVDR, для записи нужно 1 болванка DVDR/RW)
 
 
Похожие темы
Форум Тема Автор Торрент Отв. Посл. сооб.
Зарубежное кино [DVDRip, Low-Res HDRip, и т.д.] Секретный эксперимент / The Banshee Chapter (Блэр Эриксон) [2013 г., триллер, ужасы, WEB-DLRip] VO 90ytr90
0 | 0

0 | 4224

44

23.12.2013 19:44

T Зарубежное кино [DVDRip, Low-Res HDRip, и т.д.] Секретный эксперимент / The Banshee Chapter (Блэр Эриксон / Blair Erickson) [2013 г., триллер, ужасы, WEB-DLRip] Dub (чистый звук) + Original (Eng) 90ytr90
17 | 0

0 | 2287

32

07.03.2014 20:52

Зарубежное кино [DVDRip, Low-Res HDRip, и т.д.] Секретный эксперимент / The Banshee Chapter (Блэр Эриксон / Blair Erickson) [2013 г., триллер, ужасы, BDRip] Dub 90ytr90
3 | 0

0 | 319

6

11.02.2015 12:48

xUSSR сериалы Секретный фарватер [4 из 4] (Вадим Костроменко) [1986 г., приключения, военный, SATRip] 90ytr90
3 | 0

0 | 1075

12

21.09.2013 07:28

National Geographic Секретный кубинский риф / Cuba's Secret Reef (Граем Дуане) [2015 г., документальный, природа, флора, фауна, HDTVRip 720p] Dub + Original ARI71
4 | 0

0 | 500

3

12.08.2016 08:24

Зарубежное кино [HDDVDRip / BDRip / WEB-DL / HDTV 1080/720р] Секретный эксперимент / The Banshee Chapter (Блэр Эриксон) [2013 г., Ужасы, Триллер, BDRip 720p] Dub (Rus) + Original (Eng) + Subs (Eng) Ведьмочка
11 | 0

0 | 858

12

13.07.2014 11:47

Зарубежное кино [HDDVDRip / BDRip / WEB-DL / HDTV 1080/720р] Секретный эксперимент / The Banshee Chapter (Блэр Эриксон / Blair Erickson) [2013 г., триллер, ужасы, BDRip 720p] Dub + Original (Eng) + Sub (Eng) 90ytr90
3 | 0

0 | 466

1

16.02.2015 13:42

Архив Секретный отдел / The Ghost Squad / Season 1 (1-8 серии) (Laxton Richard) [2005 г., детектив, триллер, TVRip] oartemka178
0 | 0

1 | 1084

8

05.11.2011 14:45


Яндекс.Метрика powered by Sphinx


В Н И М А Н И Е
Сайт не распространяет и не хранит электронные версии произведений, а лишь бесплатно и без коммерческой выгоды (не требуя взамен платы,
SMS и т.д.) предоставляет доступ к создаваемому пользователями каталогу ссылок на торрент-файлы, которые содержат только списки хеш-сумм.
Убедительная просьба с жалобами обращаться напрямую к пользователю, разместившему торрент файл.

Вверх