Loading...
Error

Моменты истории. Восстание рабов / Moments in Time. St. John's Slave Revolt [2003 г., документальный, исследование, история, реконструкция, SatRip] DVO

Статистика раздачи
Размер:  585 MB   |    Зарегистрирован:  3 месяца 26 дней   |    Скачан:  0 раз

Полного источника не было: 2 месяца 10 дней

Сидов:  0  |  0 KB/s  ]   Личеров:  0  |  0 KB/s  ]

* - сиды/пиры с внешних источников

   
 
Автор Сообщение

ARI71 Пол:Муж

13-Авг-2016 18:15

Моменты истории. Восстание рабов / Moments in Time. St. John's Slave Revolt


Год выпуска: 2003
Жанр: документальный, исследование, история, реконструкция
Страна: США Discovery Channel
Ведущий: Джеймс Вудс
Сюжет фильма:
Документальный фильм о первом успешном восстании рабов в Новом Свете. В 1733 году темнокожие рабы восстали на контролируемом Данией и Голландией острове Святого Иоанна. Бывшие рабы удерживали остров в течение почти шести месяцев, но восстание было подавлено голландскими и английскими войсками, и работорговцы вновь восстановили поток людей из Африки на поля сахарного тростника. Современные историки и археологи ведут раскопки на острове и делятся с вами размышлениями о ходе восстания, повседневной жизни рабов Карибского бассейна.


Качество видео: SatRip

Продолжительность: 00:50:00
Формат: AVI
Видео: XviD, 704x400, ~1499 kbps
Аудио: русский, двухголосый (профессиональный), MP3 2.0, ~128.00 kbps

Код:

Общее
Полное имя : D:\Восстание рабов (DaVinci).avi
Формат : AVI
Формат/Информация : Audio Video Interleave
Размер файла : 585 Мбайт
Продолжительность : 50 м.
Общий поток : 1636 Кбит/сек
Библиотека кодирования : VirtualDub build 32842/release

Видео
Идентификатор : 0
Формат : MPEG-4 Visual
Профиль формата : Advanced Simple@L5
Параметр BVOP формата : 2
Параметр QPel формата : Нет
Параметр GMC формата : Без точки перехода
Параметр матрицы формата : Default (H.263)
Режим смешивания : Сжатый битовый поток
Идентификатор кодека : XVID
Идентификатор кодека/Подсказка : XviD
Продолжительность : 50 м.
Битрейт : 1499 Кбит/сек
Ширина : 704 пикселя
Высота : 400 пикселей
Соотношение сторон : 16:9
Частота кадров : 25,000 кадров/сек
Цветовое пространство : YUV
Субдискретизация насыщенности : 4:2:0
Битовая глубина : 8 бит
Тип развёртки : Прогрессивная
Метод сжатия : С потерями
Бит/(Пиксели*Кадры) : 0.213
Размер потока : 536 Мбайт (92%)
Библиотека кодирования : XviD 1.2.1 (UTC 2008-12-04)

Аудио
Идентификатор : 1
Формат : MPEG Audio
Версия формата : Version 1
Профиль формата : Layer 3
Режим : Joint stereo
Расширение режима : MS Stereo
Идентификатор кодека : 55
Идентификатор кодека/Подсказка : MP3
Продолжительность : 50 м.
Вид битрейта : Постоянный
Битрейт : 128 Кбит/сек
Каналы : 2 канала
Частота : 48,0 КГц
Метод сжатия : С потерями
Размер потока : 45,8 Мбайт (8%)
Выравнивание : Разделение по промежуткам
Продолжительность промежутка : 40 мс. (1,00 видеокадр)
Время предзагрузки промежутка : 500 мс.
Релиз-группа DaVinci
Ripped by bobbybrown, телеканал «ТВ Центр»
Озвучка «Марафон»
picpicpicpic
Для увеличения картинки щелкните мышкой по превью

Этот торрент недоступен для скачивания без регистрации, однако доступен по публичной magnet-ссылке (источники с публичных трекеров). Перед использованием ссылки прочтите, пожалуйста Пользовательское соглашение, а также как можно дольше оставайтесь на раздаче! Для того, чтобы скачать сам торрент-файл (который видит больше источников), а также для того, чтобы поблагодарить релизера, вам необходимо зарегистрироваться. Если регистрироваться лень - вы можете также попробовать скачать релиз по нашим партнерским ссылкам ниже.

[underverse.su].t69043.torrent
Трекер: Зарегистрирован   [ 13.08.2016 18:15 ]  

Статус: проверено (by makkol at 13.08.2016 21:22)
Поблагодарили: пока никто не поблагодарил...
Тип торрента: публичный - доступные источники с открытых трекеров: 
Размер: 585 MB (занимает 0,13 DVDR, для записи нужно 1 болванка DVDR/RW)
 
 

Яндекс.Метрика powered by Sphinx


В Н И М А Н И Е
Сайт не распространяет и не хранит электронные версии произведений, а лишь бесплатно и без коммерческой выгоды (не требуя взамен платы,
SMS и т.д.) предоставляет доступ к создаваемому пользователями каталогу ссылок на торрент-файлы, которые содержат только списки хеш-сумм.
Убедительная просьба с жалобами обращаться напрямую к пользователю, разместившему торрент файл.

Вверх