Loading...
Error

Фотоальбом Андрея Соколова (Владимир Глазунов) [2011 г., документальный, биография, рассказ, IPTVRip]

Статистика раздачи
Размер:  646 MB   |    Зарегистрирован:  3 месяца 21 день   |    Скачан:  0 раз

Полного источника не было: 3 месяца 20 дней

Сидов:  0  |  0 KB/s  ]   Личеров:  0  |  0 KB/s  ]

* - сиды/пиры с внешних источников

   
 
Автор Сообщение

ARI71 Пол:Муж

13-Авг-2016 17:33

Фотоальбом Андрея Соколова


Год выпуска: 2011
Жанр: документальный, биография, рассказ
Страна: Россия ООО "Техно-Медиа", ТК "Кто есть кто"
Режиссер: Владимир Глазунов
В ролях: Андрей Соколов
Сюжет фильма:
Черно-белая и цветная жизнь в одном фотоальбоме...Андрей Алексеевич Соколов (род. 13 августа 1962, Москва, РСФСР, СССР) — советский и российский актёр и режиссёр театра и кино, продюсер. Народный артист Российской Федерации (2005). В детстве серьезно занимался бальными танцами и даже становился призером Москвы. Снялся в 40 фильмах и сериалах. Выпустил книгу стихов и роман «Новая русская леди». Открыл юридическую фирму и туристическое агентство. Любит ароматические палочки, чайные церемонии, хорошее оружие.
Качество видео: IPTVRip

Продолжительность: 00:42:14
Формат: AVI
Видео: XviD, 704х528, ~2000 kbps
Аудио: русский, (оригинал), MP3 2.0, ~128.00 kbps

Код:

Общее
Полное имя : D:\Фотоальбом А.Соколова.2011.IPTVRip.avi
Формат : AVI
Формат/Информация : Audio Video Interleave
Размер файла : 646 Мбайт
Продолжительность : 42 м.
Общий поток : 2138 Кбит/сек
Программа кодирования : VirtualDubMod 1.5.10.3 | www.virtualdub-fr.org || (build 2550/release)
Библиотека кодирования : VirtualDubMod build 2550/release

Видео
Идентификатор : 0
Формат : MPEG-4 Visual
Профиль формата : Advanced Simple@L5
Параметр BVOP формата : 2
Параметр QPel формата : Нет
Параметр GMC формата : Без точки перехода
Параметр матрицы формата : Выборочная
Режим смешивания : Сжатый битовый поток
Идентификатор кодека : XVID
Идентификатор кодека/Подсказка : XviD
Продолжительность : 42 м.
Битрейт : 2000 Кбит/сек
Ширина : 704 пикселя
Высота : 528 пикселей
Соотношение сторон : 4:3
Частота кадров : 25,000 кадров/сек
Цветовое пространство : YUV
Субдискретизация насыщенности : 4:2:0
Битовая глубина : 8 бит
Тип развёртки : Прогрессивная
Метод сжатия : С потерями
Бит/(Пиксели*Кадры) : 0.215
Размер потока : 604 Мбайт (94%)
Библиотека кодирования : XviD 73

Аудио
Идентификатор : 1
Формат : MPEG Audio
Версия формата : Version 1
Профиль формата : Layer 3
Идентификатор кодека : 55
Идентификатор кодека/Подсказка : MP3
Продолжительность : 42 м.
Вид битрейта : Постоянный
Битрейт : 128 Кбит/сек
Каналы : 2 канала
Частота : 48,0 КГц
Метод сжатия : С потерями
Размер потока : 38,7 Мбайт (6%)
Выравнивание : Соединение по промежуткам
Продолжительность промежутка : 40 мс. (1,00 видеокадр)
Время предзагрузки промежутка : 504 мс.
Библиотека кодирования : LAME3.99r
Настройки программы : -m s -V 4 -q 2 -lowpass 17 -b 128
picpicpicpic
Для увеличения картинки щелкните мышкой по превью

Этот торрент недоступен для скачивания без регистрации, однако доступен по публичной magnet-ссылке (источники с публичных трекеров). Перед использованием ссылки прочтите, пожалуйста Пользовательское соглашение, а также как можно дольше оставайтесь на раздаче! Для того, чтобы скачать сам торрент-файл (который видит больше источников), а также для того, чтобы поблагодарить релизера, вам необходимо зарегистрироваться. Если регистрироваться лень - вы можете также попробовать скачать релиз по нашим партнерским ссылкам ниже.

[underverse.su].t69042.torrent
Трекер: Зарегистрирован   [ 13.08.2016 17:33 ]  

Статус: проверено (by makkol at 13.08.2016 21:21)
Поблагодарили: пока никто не поблагодарил...
Тип торрента: публичный - доступные источники с открытых трекеров: 
Размер: 646 MB (занимает 0,14 DVDR, для записи нужно 1 болванка DVDR/RW)
 
 
Похожие темы
Форум Тема Автор Торрент Отв. Посл. сооб.
Личности Фотоальбом Карена Шахназарова [2010 г., документальный, биография, SatRip] ARI71
3 | 0

0 | 223

0

23.07.2016 19:27

Рамки и виньетки Фотоальбом Наша свадьба. [7 шт., 7205х3602 Х 7382х3602] PSD nikola120
0 | 0

0 | 676

12

11.04.2014 06:49


Яндекс.Метрика powered by Sphinx


В Н И М А Н И Е
Сайт не распространяет и не хранит электронные версии произведений, а лишь бесплатно и без коммерческой выгоды (не требуя взамен платы,
SMS и т.д.) предоставляет доступ к создаваемому пользователями каталогу ссылок на торрент-файлы, которые содержат только списки хеш-сумм.
Убедительная просьба с жалобами обращаться напрямую к пользователю, разместившему торрент файл.

Вверх