Loading...
Error

Леонид Быков. Улыбка маэстро (Фуад Шабанов) [2008 г., документальный, биография, искусство, IPTVRip]

Статистика раздачи
Размер:  585 MB   |    Зарегистрирован:  3 месяца 22 дня   |    Скачан:  0 раз

Полного источника не было: 3 месяца 22 дня

Сидов:  0  |  0 KB/s  ]   Личеров:  0  |  0 KB/s  ]

* - сиды/пиры с внешних источников

   
 
Автор Сообщение

ARI71 Пол:Муж

13-Авг-2016 16:07

Леонид Быков. Улыбка маэстро


Год выпуска: 2008
Жанр: документальный, биография, искусство
Страна: Россия ОАО "Первый канал"
Режиссер: Фуад Шабанов
В ролях: Марьяна Быкова, Владимир Савченко, Николай Мащенко, Сергей Подгорный
Сюжет фильма:
О жизни и смерти легендарного актера Леонида Быкова. Всю жизнь — и с дружеских посиделок, и из командировок, и со съемок Леонид Быков спешил домой, к семье. Семья была для него надежным тылом, источником сил и вдохновения. А после его смерти нечистоплотные журналисты, используя свидетельства псевдодрузей актера, назвали жену, сына и дочь Быкова сумасшедшими. В нашей программе дочь Леонида Быкова — Марьяна Быкова впервые за 28 лет со дня гибели отца дает интервью центральному каналу. 11 апреля 1979 года Леонид Быков возвращался на своей «Волге» с дачи под Киевом. Перед ним двигался асфальтовый каток. Как только он начал обгон, навстречу выскочил грузовик. Чтобы избежать лобового столкновения, Леонид Быков вывернул руль в сторону и на всей скорости врезался в каток. Леонид Быков погиб по дороге домой. Была ли случайной его смерть? Есть несколько версий.
Качество видео: IPTVRip

Продолжительность: 00:44:42
Формат: AVI
Видео: XviD, 720x464, ~1692 kbps
Аудио: русский, (оригинал), MP3 2.0, ~128.00 kbps

Код:

Общее
Полное имя : D:\Leonid.Bykov.Ulybka.majestro.2008.IPTVRip.by.marfa12.avi
Формат : AVI
Формат/Информация : Audio Video Interleave
Размер файла : 585 Мбайт
Продолжительность : 44 м.
Общий поток : 1830 Кбит/сек
Библиотека кодирования : VirtualDub build 30091/release

Видео
Идентификатор : 0
Формат : MPEG-4 Visual
Профиль формата : Simple@L3
Параметр BVOP формата : 2
Параметр QPel формата : Нет
Параметр GMC формата : Без точки перехода
Параметр матрицы формата : Default (MPEG)
Режим смешивания : Сжатый битовый поток
Идентификатор кодека : XVID
Идентификатор кодека/Подсказка : XviD
Продолжительность : 44 м.
Битрейт : 1692 Кбит/сек
Ширина : 720 пикселей
Высота : 464 пикселя
Соотношение сторон : 16:10
Частота кадров : 25,000 кадров/сек
Цветовое пространство : YUV
Субдискретизация насыщенности : 4:2:0
Битовая глубина : 8 бит
Тип развёртки : Прогрессивная
Метод сжатия : С потерями
Бит/(Пиксели*Кадры) : 0.203
Размер потока : 541 Мбайт (92%)
Библиотека кодирования : XviD 1.1.0 Beta2 (UTC 2005-04-04)

Аудио
Идентификатор : 1
Формат : MPEG Audio
Версия формата : Version 1
Профиль формата : Layer 3
Режим : Joint stereo
Расширение режима : MS Stereo
Идентификатор кодека : 55
Идентификатор кодека/Подсказка : MP3
Продолжительность : 44 м.
Вид битрейта : Постоянный
Битрейт : 128 Кбит/сек
Каналы : 2 канала
Частота : 48,0 КГц
Метод сжатия : С потерями
Размер потока : 40,9 Мбайт (7%)
Выравнивание : Разделение по промежуткам
Продолжительность промежутка : 40 мс. (1,00 видеокадр)
Время предзагрузки промежутка : 500 мс.
picpicpicpicpic
Для увеличения картинки щелкните мышкой по превью

Этот торрент недоступен для скачивания без регистрации, однако доступен по публичной magnet-ссылке (источники с публичных трекеров). Перед использованием ссылки прочтите, пожалуйста Пользовательское соглашение, а также как можно дольше оставайтесь на раздаче! Для того, чтобы скачать сам торрент-файл (который видит больше источников), а также для того, чтобы поблагодарить релизера, вам необходимо зарегистрироваться. Если регистрироваться лень - вы можете также попробовать скачать релиз по нашим партнерским ссылкам ниже.

[underverse.su].t69036.torrent
Трекер: Зарегистрирован   [ 13.08.2016 16:07 ]  

Статус: проверено (by makkol at 13.08.2016 21:19)
Поблагодарили: пока никто не поблагодарил...
Тип торрента: публичный - доступные источники с открытых трекеров: 
Размер: 585 MB (занимает 0,13 DVDR, для записи нужно 1 болванка DVDR/RW)
 
 
Похожие темы
Форум Тема Автор Торрент Отв. Посл. сооб.
Личности Леонид Быков (Встречная полоса) [2013 г., документальный, биография, кинематограф, SatRip] ARI71
1 | 0

0 | 770

3

09.04.2016 12:48


Яндекс.Метрика powered by Sphinx


В Н И М А Н И Е
Сайт не распространяет и не хранит электронные версии произведений, а лишь бесплатно и без коммерческой выгоды (не требуя взамен платы,
SMS и т.д.) предоставляет доступ к создаваемому пользователями каталогу ссылок на торрент-файлы, которые содержат только списки хеш-сумм.
Убедительная просьба с жалобами обращаться напрямую к пользователю, разместившему торрент файл.

Вверх