Loading...
Error

Михаил Танич. Последнее море (Руслан Трещёв) [2013 г., документальный, биография, поэзия, IPTVRip]

Статистика раздачи
Размер:  704 MB   |    Зарегистрирован:  3 месяца 26 дней   |    Скачан:  0 раз

Полного источника не было: 3 месяца 26 дней

Сидов:  0  |  0 KB/s  ]   Личеров:  0  |  0 KB/s  ]

* - сиды/пиры с внешних источников

   
 
Автор Сообщение

ARI71 Пол:Муж

13-Авг-2016 05:55

Михаил Танич. Последнее море


Год выпуска: 2013
Жанр: документальный, биография, поэзия
Страна: Россия ООО "Красный квадрат"
Режиссер: Руслан Трещёв
В ролях: Михаил Танич
Сюжет фильма:
В его жизни было много трагических событий, о которых он не любил вспоминать. Популярный поэт-песенник Михаил Танич, песни на стихи которого пела вся страна, до последнего дня своей жизни старался избегать разговоров о прошлом. Автор песен, любимых не одним поколением, прошёл всю войну, был практически похоронен заживо в братской могиле, после войны по доносу был отправлен в лагерь и едва не погиб там. А после войны Танич так и не захотел общаться со своим повзрослевшим сыном, который написал ему обидное письмо под диктовку мамы. Удивительно, но некоторые драматические истории из жизни Танича его близкие и друзья узнали во время съёмок фильма о нём.

Михаи́л Иса́евич Та́нич (настоящая фамилия — Танхиле́вич; 15 сентября 1923, Таганрог — 17 апреля 2008, Москва) — советский и российский поэт-песенник. Народный артист Российской Федерации (2003).

Качество видео: IPTVRip

Продолжительность: 00:50:47
Формат: AVI
Видео: XviD, 704x400, ~1800 kbps
Аудио: русский, (оригинал), MP3 2.0, ~128.00 kbps

Код:

Общее
Полное имя : D:\Михаил Танич.Последнее море.2013.IPTVRip.avi
Формат : AVI
Формат/Информация : Audio Video Interleave
Размер файла : 704 Мбайт
Продолжительность : 50 м.
Общий поток : 1937 Кбит/сек
Программа кодирования : VirtualDubMod 1.5.10.3 | www.virtualdub-fr.org || (build 2550/release)
Библиотека кодирования : VirtualDubMod build 2550/release

Видео
Идентификатор : 0
Формат : MPEG-4 Visual
Профиль формата : Advanced Simple@L5
Параметр BVOP формата : 2
Параметр QPel формата : Нет
Параметр GMC формата : Без точки перехода
Параметр матрицы формата : Выборочная
Режим смешивания : Сжатый битовый поток
Идентификатор кодека : XVID
Идентификатор кодека/Подсказка : XviD
Продолжительность : 50 м.
Битрейт : 1800 Кбит/сек
Ширина : 704 пикселя
Высота : 400 пикселей
Соотношение сторон : 16:9
Частота кадров : 25,000 кадров/сек
Цветовое пространство : YUV
Субдискретизация насыщенности : 4:2:0
Битовая глубина : 8 бит
Тип развёртки : Прогрессивная
Метод сжатия : С потерями
Бит/(Пиксели*Кадры) : 0.256
Размер потока : 654 Мбайт (93%)
Библиотека кодирования : XviD 73

Аудио
Идентификатор : 1
Формат : MPEG Audio
Версия формата : Version 1
Профиль формата : Layer 3
Идентификатор кодека : 55
Идентификатор кодека/Подсказка : MP3
Продолжительность : 50 м.
Вид битрейта : Постоянный
Битрейт : 128 Кбит/сек
Каналы : 2 канала
Частота : 48,0 КГц
Метод сжатия : С потерями
Размер потока : 46,5 Мбайт (7%)
Выравнивание : Соединение по промежуткам
Продолжительность промежутка : 40 мс. (1,00 видеокадр)
Время предзагрузки промежутка : 504 мс.
Библиотека кодирования : LAME3.99r
Настройки программы : -m s -V 4 -q 2 -lowpass 17 -b 128
picpicpicpicpic
Для увеличения картинки щелкните мышкой по превью

Этот торрент недоступен для скачивания без регистрации, однако доступен по публичной magnet-ссылке (источники с публичных трекеров). Перед использованием ссылки прочтите, пожалуйста Пользовательское соглашение, а также как можно дольше оставайтесь на раздаче! Для того, чтобы скачать сам торрент-файл (который видит больше источников), а также для того, чтобы поблагодарить релизера, вам необходимо зарегистрироваться. Если регистрироваться лень - вы можете также попробовать скачать релиз по нашим партнерским ссылкам ниже.

[underverse.su].t69027.torrent
Трекер: Зарегистрирован   [ 13.08.2016 05:55 ]  

Статус: проверено (by makkol at 13.08.2016 21:18)
Поблагодарили: пока никто не поблагодарил...
Тип торрента: публичный - доступные источники с открытых трекеров: 
Размер: 704 MB (занимает 0,16 DVDR, для записи нужно 1 болванка DVDR/RW)
 
 

Яндекс.Метрика powered by Sphinx


В Н И М А Н И Е
Сайт не распространяет и не хранит электронные версии произведений, а лишь бесплатно и без коммерческой выгоды (не требуя взамен платы,
SMS и т.д.) предоставляет доступ к создаваемому пользователями каталогу ссылок на торрент-файлы, которые содержат только списки хеш-сумм.
Убедительная просьба с жалобами обращаться напрямую к пользователю, разместившему торрент файл.

Вверх