Loading...
Error

Кельты. Кровь и железо / The Celts: Blood, Iron and Sacrifice (1 сезон: 1 серия из 3) [2015 г., документальный, археология, история, древние народы, HDTVRip] DVO

Статистика раздачи
Размер:  700 MB   |    Зарегистрирован:  3 месяца 22 дня   |    Скачан:  7 раз

Полного источника не было: 27 дней

Сидов:  0  |  0 KB/s  ]   Личеров:  0  |  0 KB/s  ]

* - сиды/пиры с внешних источников

   
 
Автор Сообщение

ARI71 Пол:Муж

12-Авг-2016 18:58

Кельты. Кровь и железо / The Celts: Blood, Iron and Sacrifice (The Celts: Blood, Iron and Sacrifice with Alice Roberts and Neil Oliver) (1 сезон: 1 серия из 3)


Год выпуска: 2015
Жанр: документальный, археология, история, древние народы
Страна: Великобритания BBC
В ролях: Элис Робертс, Нил Оливер
Сюжет фильма:
Антрополог Элис Робертс и археолог Нил Оливер отправляются на поиски Кельтов - одного из самых загадочных народов древности. В Британии и Ирландии кельтское наследие можно встретить повсеместно, но в этом документальном фильме Нил и Элис отправятся далеко за пределы туманного альбиона и расскажут о происхождении и верованиях кельтского народа, жившего в Железном Веке, чьи артефакты и останки раскиданы по всей Европе - от Турции до Португалии. Да ещё и с впечатляющими реконструкциями образа жизни кельтов.


Качество видео: HDTVRip

Продолжительность: 1 x ~00:58:25
Формат: AVI
Видео: XviD, 720x400, ~1481 kbps
Аудио: русский, двухголосый (профессиональный), AC3 2.0, ~192.00 kbps
Раздача ведётся путём добавления новых серий; при каждом добавлении создаётся новый торрент. Чтобы начать докачку новой серии, пользователям необходимо сделать следующее:
- Остановить скачивание.
- Удалить старый торрент у себя из клиента (старые серии удалять не надо).
- Скачать новый торрент и запустить его у себя в клиенте вместо старого, при этом указать клиенту путь в старую папку куда и должно происходить скачивание новых серий.

Ваш клиент при этом должен произвести хеширование (проверку) старой папки (если не производит сам - помогите ему сделать это), и будет докачивать только те серии которых у вас ещё нет. Старые серии при этом не удаляются, а продолжают раздаваться!
Если вы уже удалили старые серии, то предотвратить повторную закачку старых серий можно, отжав галочку в соответствующих местах при запуске нового торрента. По возможности, желательно не удалять старые серии как можно дольше, чтобы релизер не столько продолжал раздавать старые серии, а смог сконцентрироваться на новых.

Код:

Общее
Полное имя : D:\Kelti.1.01.HDTVRip.avi
Формат : AVI
Формат/Информация : Audio Video Interleave
Размер файла : 700 Мбайт
Продолжительность : 58 м.
Общий поток : 1683 Кбит/сек
Программа кодирования : VirtualDubMod 1.5.10.3 | www.virtualdub-fr.org || (build 2550/release)
Библиотека кодирования : VirtualDubMod build 2550/release

Видео
Идентификатор : 0
Формат : MPEG-4 Visual
Профиль формата : Advanced Simple@L5
Параметр BVOP формата : 2
Параметр QPel формата : Нет
Параметр GMC формата : Без точки перехода
Параметр матрицы формата : Default (MPEG)
Идентификатор кодека : XVID
Идентификатор кодека/Подсказка : XviD
Продолжительность : 58 м.
Битрейт : 1481 Кбит/сек
Ширина : 720 пикселей
Высота : 400 пикселей
Соотношение сторон : 16:9
Частота кадров : 25,000 кадров/сек
Цветовое пространство : YUV
Субдискретизация насыщенности : 4:2:0
Битовая глубина : 8 бит
Тип развёртки : Прогрессивная
Метод сжатия : С потерями
Бит/(Пиксели*Кадры) : 0.206
Размер потока : 616 Мбайт (88%)
Библиотека кодирования : XviD 1.2.1 (UTC 2008-12-04)

Аудио
Идентификатор : 1
Формат : AC-3
Формат/Информация : Audio Coding 3
Расширение режима : CM (complete main)
Параметр Endianness формата : Big
Идентификатор кодека : 2000
Продолжительность : 58 м.
Вид битрейта : Постоянный
Битрейт : 192 Кбит/сек
Каналы : 2 канала
Расположение каналов : Front: L R
Частота : 48,0 КГц
Частота кадров : 31,250 кадров/сек (1536 spf)
Метод сжатия : С потерями
Размер потока : 79,9 Мбайт (11%)
Выравнивание : Разделение по промежуткам
Продолжительность промежутка : 40 мс. (1,00 видеокадр)
Время предзагрузки промежутка : 500 мс.
Перевод Михаила Халецкого. Озвучено студией «Омикрон» специально для HDCLUB.
Задействовано 2 актера.
Русская дорожка получена наложением чистого голоса.
Озвучивание осуществлено в рамках сервиса "Озвучивание". Спонсоры: gelom, writyper, DeTorquemada, Allex42, moonsea, terminal, k_igor.
picpicpicpicpic
Для увеличения картинки щелкните мышкой по превью

Этот торрент недоступен для скачивания без регистрации, однако доступен по публичной magnet-ссылке (источники с публичных трекеров). Перед использованием ссылки прочтите, пожалуйста Пользовательское соглашение, а также как можно дольше оставайтесь на раздаче! Для того, чтобы скачать сам торрент-файл (который видит больше источников), а также для того, чтобы поблагодарить релизера, вам необходимо зарегистрироваться. Если регистрироваться лень - вы можете также попробовать скачать релиз по нашим партнерским ссылкам ниже.

[underverse.su].t69019.torrent
Трекер: Зарегистрирован   [ 12.08.2016 18:58 ]  

Статус: T временная (by makkol at 12.08.2016 21:52)
Поблагодарили: 1 человек
Тип торрента: публичный - доступные источники с открытых трекеров: 
Размер: 700 MB (занимает 0,16 DVDR, для записи нужно 1 болванка DVDR/RW)
 
 

Яндекс.Метрика powered by Sphinx


В Н И М А Н И Е
Сайт не распространяет и не хранит электронные версии произведений, а лишь бесплатно и без коммерческой выгоды (не требуя взамен платы,
SMS и т.д.) предоставляет доступ к создаваемому пользователями каталогу ссылок на торрент-файлы, которые содержат только списки хеш-сумм.
Убедительная просьба с жалобами обращаться напрямую к пользователю, разместившему торрент файл.

Вверх