Loading...
Error

Ритуалы друидов / Julius Caesar and the Druids (Эндрю Четер) [2008 г., документальный, археология, история, реконструкция, SatRip] DVO

Статистика раздачи
Размер:  529 MB   |    Зарегистрирован:  3 месяца 28 дней   |    Скачан:  4 раза

Полного источника не было: 12 дней

Сидов:  0  |  0 KB/s  ]   Личеров:  0  |  0 KB/s  ]

* - сиды/пиры с внешних источников

   
 
Автор Сообщение

ARI71 Пол:Муж

12-Авг-2016 17:52

Ритуалы друидов / Julius Caesar and the Druids


Год выпуска: 2008
Жанр: документальный, археология, история, реконструкция
Страна: США , Великобритания National Geographic, Change Productions
Режиссер: Эндрю Четер
Сюжет фильма:
В 55 году до нашей эры Юлий Цезарь высадился на берегу Британии с двумя легионами. Он стал первым римлянином, который вторгся на эти земли, и первым полководцем, который столкнулся со свирепыми кельтами. В своих дневниках Цезарь описал этот народ, как зловещих варваров. Также он рассказал о кельтских жрецах – друидах, посвященные в тайны природы, но в то же время практикующих человеческие жертвоприношения и даже каннибализм. Новые исследования раскрывают тайны древнего языческого культа. Так стоит ли полагаться на свидетельства Цезаря? И убивали ли друиды людей, пытаясь умилостивить силы природы?
Качество видео: SatRip

Продолжительность: 00:45:11
Формат: AVI
Видео: XviD, 704x464, ~1499 kbps
Аудио: русский, двухголосый (профессиональный), MP3 2.0, ~128.00 kbps

Код:

Общее
Полное имя : D:\Ритуалы друидов (DaVinci).avi
Формат : AVI
Формат/Информация : Audio Video Interleave
Размер файла : 529 Мбайт
Продолжительность : 45 м.
Общий поток : 1637 Кбит/сек
Библиотека кодирования : VirtualDub build 35491/release

Видео
Идентификатор : 0
Формат : MPEG-4 Visual
Профиль формата : Advanced Simple@L5
Параметр BVOP формата : 2
Параметр QPel формата : Нет
Параметр GMC формата : Без точки перехода
Параметр матрицы формата : Default (MPEG)
Режим смешивания : Сжатый битовый поток
Идентификатор кодека : XVID
Идентификатор кодека/Подсказка : XviD
Продолжительность : 45 м.
Битрейт : 1499 Кбит/сек
Ширина : 704 пикселя
Высота : 464 пикселя
Соотношение сторон : 3:2
Частота кадров : 25,000 кадров/сек
Цветовое пространство : YUV
Субдискретизация насыщенности : 4:2:0
Битовая глубина : 8 бит
Тип развёртки : Прогрессивная
Метод сжатия : С потерями
Бит/(Пиксели*Кадры) : 0.184
Размер потока : 485 Мбайт (92%)
Библиотека кодирования : XviD 73

Аудио
Идентификатор : 1
Формат : MPEG Audio
Версия формата : Version 1
Профиль формата : Layer 3
Режим : Joint stereo
Расширение режима : MS Stereo
Идентификатор кодека : 55
Идентификатор кодека/Подсказка : MP3
Продолжительность : 45 м.
Вид битрейта : Постоянный
Битрейт : 128 Кбит/сек
Каналы : 2 канала
Частота : 48,0 КГц
Метод сжатия : С потерями
Размер потока : 41,4 Мбайт (8%)
Выравнивание : Разделение по промежуткам
Продолжительность промежутка : 40 мс. (1,00 видеокадр)
Время предзагрузки промежутка : 500 мс.
Релиз-группа DaVinci
Ripped by Xaoc, телеканал «Петербург - 5 канал»
Озвучка, перевод - «Петербург - 5 канал»
picpicpicpicpic
Для увеличения картинки щелкните мышкой по превью

Этот торрент недоступен для скачивания без регистрации, однако доступен по публичной magnet-ссылке (источники с публичных трекеров). Перед использованием ссылки прочтите, пожалуйста Пользовательское соглашение, а также как можно дольше оставайтесь на раздаче! Для того, чтобы скачать сам торрент-файл (который видит больше источников), а также для того, чтобы поблагодарить релизера, вам необходимо зарегистрироваться. Если регистрироваться лень - вы можете также попробовать скачать релиз по нашим партнерским ссылкам ниже.

[underverse.su].t69017.torrent
Трекер: Зарегистрирован   [ 12.08.2016 17:52 ]  

Статус: проверено (by makkol at 12.08.2016 21:50)
Поблагодарили: пока никто не поблагодарил...
Тип торрента: публичный - доступные источники с открытых трекеров: 
Размер: 529 MB (занимает 0,12 DVDR, для записи нужно 1 болванка DVDR/RW)
 
 

Яндекс.Метрика powered by Sphinx


В Н И М А Н И Е
Сайт не распространяет и не хранит электронные версии произведений, а лишь бесплатно и без коммерческой выгоды (не требуя взамен платы,
SMS и т.д.) предоставляет доступ к создаваемому пользователями каталогу ссылок на торрент-файлы, которые содержат только списки хеш-сумм.
Убедительная просьба с жалобами обращаться напрямую к пользователю, разместившему торрент файл.

Вверх