Loading...
Error

В объективе: необычное поведение животных / Caught in the Act (1-18 серий из 18) [2007-2012 г., документальный, флора, фауна, HDTVRip] VO

Статистика раздачи
Размер:  12,31 GB   |    Зарегистрирован:  3 месяца 30 дней   |    Скачан:  2 раза

Полного источника не было: 3 месяца 19 дней

Сидов:  0  |  0 KB/s  ]   Личеров:  0  |  0 KB/s  ]

* - сиды/пиры с внешних источников

   
 
Автор Сообщение

ARI71 Пол:Муж

10-Авг-2016 12:57

В объективе: необычное поведение животных / Caught in the Act (1-18 серий из 18)


Год выпуска: 2007-2012
Жанр: документальный, флора, фауна
Страна: США National Geographic Channel
Сюжет фильма:
В дикой природе жизнь течет быстро. Чтобы запечатлеть диких животных на камеру, профессионалы подолгу выжидают в труднопроходимой местности. Наградой за их упорство, могут стать кадры, от которых захватывает дух. Но вовсе не обязательно проводить месяцы спрятавшись в укрытии, чтобы запечатлеть невероятное поведение животных. Целая армия отпускников и искателей приключений наталкиваются на невероятные сцены и эти записи позволяют взглянуть на дикую природу с другой стороны.
Качество видео: HDTVRip

Продолжительность: 18 х ~00:45:00
Формат: AVI
Видео: XviD, 720x400, ~1935 kbps
Аудио: русский, одноголосый закадровый (профессиональный), MP2 2.0, ~192.00 kbps
(тех. данные всех серий идентичны)

Доп. информация: В некоторых сериях повторяются фрагменты из предыдущих серий.

Код:

Общее
Полное имя : D:\V.obektive.Neobychnoe.povedenie.zhivotnyh.2007-2012.HDTVRip\V.obektive.Neobychnoe.povedenie.zhivotnyh.1-Nastojashhaja.Afrika.2007.HDTVRip.avi
Формат : AVI
Формат/Информация : Audio Video Interleave
Размер файла : 697 Мбайт
Продолжительность : 45 м.
Общий поток : 2137 Кбит/сек
Программа кодирования : VirtualDubMod 1.5.10.3 | www.virtualdub-fr.org || (build 2550/release)
Библиотека кодирования : VirtualDubMod build 2550/release

Видео
Идентификатор : 0
Формат : MPEG-4 Visual
Профиль формата : Advanced Simple@L5
Параметр BVOP формата : 1
Параметр QPel формата : Нет
Параметр GMC формата : Без точки перехода
Параметр матрицы формата : Выборочная
Идентификатор кодека : XVID
Идентификатор кодека/Подсказка : XviD
Продолжительность : 45 м.
Битрейт : 1935 Кбит/сек
Ширина : 720 пикселей
Высота : 400 пикселей
Соотношение сторон : 16:9
Частота кадров : 25,000 кадров/сек
Цветовое пространство : YUV
Субдискретизация насыщенности : 4:2:0
Битовая глубина : 8 бит
Тип развёртки : Прогрессивная
Метод сжатия : С потерями
Бит/(Пиксели*Кадры) : 0.269
Размер потока : 631 Мбайт (91%)
Библиотека кодирования : XviD 73

Аудио
Идентификатор : 1
Формат : MPEG Audio
Версия формата : Version 1
Профиль формата : Layer 2
Идентификатор кодека : 50
Продолжительность : 45 м.
Вид битрейта : Постоянный
Битрейт : 192 Кбит/сек
Каналы : 2 канала
Частота : 48,0 КГц
Метод сжатия : С потерями
Размер потока : 62,7 Мбайт (9%)
Выравнивание : Соединение по промежуткам
Продолжительность промежутка : 40 мс. (1,00 видеокадр)
Время предзагрузки промежутка : 504 мс.
Перевод - профессиональный (одноголосый, закадровый) от студии - АРК·ТВ
1. Настоящая Африка без прикрас
Побережье южной Африки - место, где обитает одна из самых смертельных хищников океана - белая акула.

2. Сила духа
В дикой природе размер ничего не говорит о силе духа. Группа полосатых мангустов бесстрашно сражается даже со смертельно опасными кобрами.

3. Неожиданные противники
Группа ученых-натуралистов исследует случаи самого необычного поведения животных, попавшие в объектив кинокамеры.

4. Странные выходки
Станьте очевидцами редких моментов в поведении животных - от смешных трюков до самых странных выходок.

5. Дикость в чистом виде
Следите за жизнью и невероятным поведением животных - от льва, похищающего детеныша бегемота, до двухголовой змеи.

6. Опасные игры
Смотрите поразительные кадры, снятые исследователями поведения животных и случайными очевидцами, включая нападение гиеновых собак на слонов.

7. Жизнь на воле
Обширное побережье южной Африки дает убежище хищникам всех форм и размеров.

8. Звериные причуды
Львы - самые большие из африканских хищников и единственные представители кошачьих, которые живут и охотятся группами.

9. Львиные разборки
Кадры, снятые операторами и туристами, оказавшимися в нужном месте в нужное время, включая стычку львов и дружбу обезьяны с собакой.

10. Крокодилы против львов
От схватки львов с буйволами до драки полярных медведей - не пропустите эти поразительные моменты, запечатленные на пленку.

11. Безумный олень
От ворующих скатов до бойни на реке Мара - смотрите самые поразительные кадры из мира дикой природы.

12. Бой тигров
Почувствуйте ярость схватки тигров, станьте очевидцами того, как гигант морской бездны сокрушает яхту, и станьте свидетелями рождения слоненка.

13. Когда жертва дает отпор
Невероятные кадры, на которых гну преследует гепарда, бородавочнику удается перехитрить гиен, а мангуст шокирует льва своей смелостью.

14. В атаку!
От глубин Индийского океана и до густых зарослей кустарника в Южной Африке - иногда дикие животные подходят слишком близко…

15. Странные и дикие
Иногда встречи с природой идут не так, как планировалось. От странностей у животных до попавших в беду зверей - не пропустите эти редкие кадры.

16. Бойцовский клуб
В природе животные могут сражаться до смерти за еду, территорию и семью, но выживание зависит от смелости и ума не меньше, чем от силы мышц.

17. Кровная вражда
Стычки диких животных связаны не только с выживанием. Мы станем очевидцами давней войны между гиенами и львами и междоусобицы двух групп братьев.

18. Жизнь и смерть
Жестокие убийства, проявления храбрости и чудо рождения - эти истории рассказывают о победах и поражениях молодых животных Африки.
picpicpicpicpic
Для увеличения картинки щелкните мышкой по превью

Этот торрент недоступен для скачивания без регистрации, однако доступен по публичной magnet-ссылке (источники с публичных трекеров). Перед использованием ссылки прочтите, пожалуйста Пользовательское соглашение, а также как можно дольше оставайтесь на раздаче! Для того, чтобы скачать сам торрент-файл (который видит больше источников), а также для того, чтобы поблагодарить релизера, вам необходимо зарегистрироваться. Если регистрироваться лень - вы можете также попробовать скачать релиз по нашим партнерским ссылкам ниже.

[underverse.su].t68887.torrent
Трекер: Зарегистрирован   [ 10.08.2016 12:57 ]  

Статус: проверено (by Паукан at 10.08.2016 15:08)
Поблагодарили: пока никто не поблагодарил...
Тип торрента: публичный - доступные источники с открытых трекеров: 
Размер: 12,31 GB (занимает 2,81 DVDR, для записи нужно 3 болванки DVDR/RW)
 
 

Яндекс.Метрика powered by Sphinx


В Н И М А Н И Е
Сайт не распространяет и не хранит электронные версии произведений, а лишь бесплатно и без коммерческой выгоды (не требуя взамен платы,
SMS и т.д.) предоставляет доступ к создаваемому пользователями каталогу ссылок на торрент-файлы, которые содержат только списки хеш-сумм.
Убедительная просьба с жалобами обращаться напрямую к пользователю, разместившему торрент файл.

Вверх