Loading...
Error

Дикая Америка c Кейси Андерсоном / America The Wild America The Wild with Casey Anderson (2 сезон: 1-6 серий из 6) [2011 г., документальный, флора, фауна, HDTVRip] Dub

Статистика раздачи
Размер:  3,53 GB   |    Зарегистрирован:  9 месяцев   |    Скачан:  1 раз

Полного источника не было: 2 месяца 1 день

Сидов:  0  |  0 KB/s  ]   Личеров:  0  |  0 KB/s  ]

* - сиды/пиры с внешних источников

   
 
Автор Сообщение

ARI71 Пол:Муж

09-Авг-2016 17:02

Дикая Америка c Кейси Андерсоном / America The Wild America The Wild with Casey Anderson (2 сезон: 1-6 серий из 6)


Год выпуска: 2011
Жанр: документальный, флора, фауна
Страна: США National Geographic Channel
В ролях: Кейси Андерсон
Сюжет фильма:
Во втором сезоне мы продолжим наблюдать за захватывающими приключениями исследователя и натуралиста Кейси Андерсона в условиях дикой природы. Вместе с ним мы отправимся в шесть потрясающих экспедиций, от которых захватывает дух: он разобьет лагерь на диком острове, чтобы исследовать волков, войдет в пещеру в поисках летучих мышей-вампиров, столкнется лицом к лицу со стадами гигантских лосей Аляски, проложит свой путь через воды, полные аллигаторов, в национальном парке Эверглейдс во Флориде, с вертолета посмотрит на схватку между бараном и горным львом и, наконец, попадет в самое сердце тьмы – в ночной мир Йеллоустонских Гризли.
Качество видео: HDTVRip

Продолжительность: 6 х ~ 00:45:00
Формат: AVI
Видео: XviD, 704x384, ~1672 kbps
Аудио: русский, (дублированный), AC3 2.0, ~192.00 kbps
(тех. данные всех серий идентичны)

Код:

Общее
Полное имя : D:\America The Wild S02 2011 HDTVRip_Fandorin\America The Wild s02e01 Stalking the Mountain Lion HDTVRip_Fandorin.avi
Формат : AVI
Формат/Информация : Audio Video Interleave
Размер файла : 602 Мбайт
Продолжительность : 44 м.
Общий поток : 1873 Кбит/сек
Программа кодирования : VirtualDubMod 1.5.10.2 (build 2540/release)
Библиотека кодирования : VirtualDubMod build 2540/release

Видео
Идентификатор : 0
Формат : MPEG-4 Visual
Профиль формата : Advanced Simple@L5
Параметр BVOP формата : 2
Параметр QPel формата : Нет
Параметр GMC формата : Без точки перехода
Параметр матрицы формата : Default (H.263)
Идентификатор кодека : XVID
Идентификатор кодека/Подсказка : XviD
Продолжительность : 44 м.
Битрейт : 1672 Кбит/сек
Ширина : 704 пикселя
Высота : 384 пикселя
Соотношение сторон : 1,85:1
Частота кадров : 25,000 кадров/сек
Цветовое пространство : YUV
Субдискретизация насыщенности : 4:2:0
Битовая глубина : 8 бит
Тип развёртки : Прогрессивная
Метод сжатия : С потерями
Бит/(Пиксели*Кадры) : 0.247
Размер потока : 537 Мбайт (89%)
Библиотека кодирования : XviD 1.2.0.dev47 (UTC 2006-11-01)

Аудио
Идентификатор : 1
Формат : AC-3
Формат/Информация : Audio Coding 3
Расширение режима : CM (complete main)
Параметр Endianness формата : Big
Идентификатор кодека : 2000
Продолжительность : 44 м.
Вид битрейта : Постоянный
Битрейт : 192 Кбит/сек
Каналы : 2 канала
Расположение каналов : Front: L R
Частота : 48,0 КГц
Частота кадров : 31,250 кадров/сек (1536 spf)
Метод сжатия : С потерями
Размер потока : 61,7 Мбайт (10%)
Выравнивание : Разделение по промежуткам
Продолжительность промежутка : 40 мс. (1,00 видеокадр)
Время предзагрузки промежутка : 500 мс.
Документальный дубляж от студии - АРК·ТВ
Голос рассказчика - полный дубляж
Интервью - слышна оригинальная речь
1. По следам пумы / Stalking the Mountain Lion: Натуралист Кейси Андерсон отправляется на поиски неуловимых пум, надеясь заснять этих "призраков Скалистых гор" с помощью специальной аппаратуры.

2. Король росомах / Wolverine King: Кейси Андерсон отправляется в заснеженный край Аляски и Британской Колумбии, где знакомится с выращенной в неволе росомахой по кличке Джаспер.

3. Сафари в Гранд-Каньоне / Grand Canyon Safari: Кейси Андерсон путешествует по безлюдной дикой местности, учась навыкам выживания у редких и находящихся на грани исчезновения животных.

4. Падальщики Йелоустоуна / Yellowstone Scavengers: Кейси Андерсон выслеживает падальщиков Йеллоустоуна, знакомя зрителей с редкими и исчезающими видами, некоторые из которых смертельно опасны.

5. Нашествие барибалов / Black Bear Invasion: Кейси учит медвежонка барибала ходить, плавать, лазить по деревьям и добывать пищу, а затем ищет его родственников в дикой местности штата Мэн.

6. Гризли против белого медведя / Grizzly vs. Polar Bear: Кейси выясняет, почему два вида медведей, которые раньше всегда жили в разных климатических зонах и имели разные повадки, стали появляться рядом.
picpicpicpicpic
Для увеличения картинки щелкните мышкой по превью

Этот торрент недоступен для скачивания без регистрации, однако доступен по публичной magnet-ссылке (источники с публичных трекеров). Перед использованием ссылки прочтите, пожалуйста Пользовательское соглашение, а также как можно дольше оставайтесь на раздаче! Для того, чтобы скачать сам торрент-файл (который видит больше источников), а также для того, чтобы поблагодарить релизера, вам необходимо зарегистрироваться. Если регистрироваться лень - вы можете также попробовать скачать релиз по нашим партнерским ссылкам ниже.

[underverse.su].t68850.torrent
Трекер: Зарегистрирован   [ 09.08.2016 17:02 ]  

Статус: проверено (by 90ytr90 at 09.08.2016 17:17)
Поблагодарили: пока никто не поблагодарил...
Тип торрента: публичный - доступные источники с открытых трекеров: 
Размер: 3,53 GB (занимает 0,81 DVDR, для записи нужно 1 болванка DVDR/RW)
 
 
Похожие темы
Форум Тема Автор Торрент Отв. Посл. сооб.
National Geographic Дикая Америка c Кейси Андерсоном / America The Wild (America The Wild with Casey Anderson) / (2 сезон: 1-6 серий из 6) [2011 г., документальный, путешествие, флора, фауна, HDTVRip 720p] Dub ARI71
0 | 0

0 | 593

2

17.08.2016 20:09


Яндекс.Метрика powered by Sphinx


В Н И М А Н И Е
Сайт не распространяет и не хранит электронные версии произведений, а лишь бесплатно и без коммерческой выгоды (не требуя взамен платы,
SMS и т.д.) предоставляет доступ к создаваемому пользователями каталогу ссылок на торрент-файлы, которые содержат только списки хеш-сумм.
Убедительная просьба с жалобами обращаться напрямую к пользователю, разместившему торрент файл.

Вверх