Loading...
Error

Элвис Пресли - От начала до конца / Elvis Presley. From the beginning to the end (Марино Аморузо) [2004 г., документальный, биография, музыка, DVDRip] VO

Статистика раздачи
Размер:  1,43 GB   |    Зарегистрирован:  3 месяца 26 дней   |    Скачан:  2 раза

Полного источника не было: 3 месяца 1 день

Сидов:  0  |  0 KB/s  ]   Личеров:  0  |  0 KB/s  ]

* - сиды/пиры с внешних источников

   
 
Автор Сообщение

ARI71 Пол:Муж

08-Авг-2016 17:32

Элвис Пресли - От начала до конца / Elvis Presley. From the beginning to the end


Год выпуска: 2004
Жанр: документальный, биография, музыка
Страна: США North Shore Entertainment, Tangiers Entertainment
Режиссер: Марино Аморузо
В ролях: Элвис Пресли, Фрэнк Синатра
Сюжет фильма:
Нет никаких сомнений в том, что Элвис Пресли был одним из самых известных американцев 20-го столетия, и в мире музыки ему нет и не было равных. По сей день его вклад в культуру как исполнителя рок-н-ролла считается непревзойденным. Его по-прежнему безумно любят миллионы людей во всем мире, не говоря о том, что ежегодно огромными тиражами продаются его пластинки. Его талант, красота, чувственность и добрый нрав вызывают обожание у поклонников. Этот фильм - дань уважения королю рок-н-ролла и в то же время всеобъемлющая и подробная биография его жизни. С помощью материалов и фотографий за весь период его 42-х-летней жизни мы расскажем вам историю Пресли, от его рождения в Tupelo, штат Миссисипи и взлета, как суперзвезды до трагической смерти. Фильм включает в себя многочисленные интервью с музыкантами, критиками и историками, а так же материалы о местах, связанных с именем Пресли.

Э́лвис Ааро́н Пре́сли (англ. Elvis Aaron Presley; 8 января 1935, Ту́пело — 16 августа 1977, Мемфис) — американский певец и актёр, один из самых коммерчески успешных исполнителей популярной музыки XX века. В Америке Пресли прозвали «королём рок-н-ролла» (или просто «королём» — The King). Был популяризатором рок-н-ролла.

Качество видео: DVDRip

Продолжительность: 01:02:10
Формат: AVI
Видео: DivX 5, 720x480, ~3100 kbps
Аудио: русский, одноголосый (профессиональный), AC3 2.0, ~192.00 kbps

Код:

Общее
Полное имя : D:\Elvis.Presli.ot.nachala.do.kontsa.2005.DivX.DVDRip.avi
Формат : AVI
Формат/Информация : Audio Video Interleave
Размер файла : 1,43 Гбайт
Продолжительность : 1 ч. 2 м.
Общий поток : 3303 Кбит/сек
Библиотека кодирования : VirtualDub-MPEG2 build 24600/release

Видео
Идентификатор : 0
Формат : MPEG-4 Visual
Параметр BVOP формата : 1
Параметр QPel формата : Нет
Параметр GMC формата : Без точки перехода
Параметр матрицы формата : Default (H.263)
Режим смешивания : Сжатый битовый поток
Идентификатор кодека : DX50
Идентификатор кодека/Подсказка : DivX 5
Продолжительность : 1 ч. 2 м.
Битрейт : 3100 Кбит/сек
Ширина : 720 пикселей
Высота : 480 пикселей
Соотношение сторон : 3:2
Частота кадров : 29,970 кадров/сек
Стандарт вещания : NTSC
Цветовое пространство : YUV
Субдискретизация насыщенности : 4:2:0
Битовая глубина : 8 бит
Тип развёртки : Прогрессивная
Метод сжатия : С потерями
Бит/(Пиксели*Кадры) : 0.299
Размер потока : 1,35 Гбайт (94%)
Библиотека кодирования : DivX 6.6.1.4

Аудио
Идентификатор : 1
Формат : AC-3
Формат/Информация : Audio Coding 3
Расширение режима : CM (complete main)
Параметр Endianness формата : Big
Идентификатор кодека : 2000
Продолжительность : 1 ч. 2 м.
Вид битрейта : Постоянный
Битрейт : 192 Кбит/сек
Каналы : 2 канала
Расположение каналов : Front: L R
Частота : 48,0 КГц
Частота кадров : 31,250 кадров/сек (1536 spf)
Метод сжатия : С потерями
Размер потока : 85,4 Мбайт (6%)
Выравнивание : Соединение по промежуткам
Продолжительность промежутка : 33 мс. (1,00 видеокадр)
Время предзагрузки промежутка : 512 мс.
picpicpicpicpic
Для увеличения картинки щелкните мышкой по превью

Этот торрент недоступен для скачивания без регистрации, однако доступен по публичной magnet-ссылке (источники с публичных трекеров). Перед использованием ссылки прочтите, пожалуйста Пользовательское соглашение, а также как можно дольше оставайтесь на раздаче! Для того, чтобы скачать сам торрент-файл (который видит больше источников), а также для того, чтобы поблагодарить релизера, вам необходимо зарегистрироваться. Если регистрироваться лень - вы можете также попробовать скачать релиз по нашим партнерским ссылкам ниже.

[underverse.su].t68818.torrent
Трекер: Зарегистрирован   [ 08.08.2016 17:32 ]  

Статус: проверено (by makkol at 08.08.2016 23:11)
Поблагодарили: пока никто не поблагодарил...
Тип торрента: публичный - доступные источники с открытых трекеров: 
Размер: 1,43 GB (занимает 0,33 DVDR, для записи нужно 1 болванка DVDR/RW)
 
 

Яндекс.Метрика powered by Sphinx


В Н И М А Н И Е
Сайт не распространяет и не хранит электронные версии произведений, а лишь бесплатно и без коммерческой выгоды (не требуя взамен платы,
SMS и т.д.) предоставляет доступ к создаваемому пользователями каталогу ссылок на торрент-файлы, которые содержат только списки хеш-сумм.
Убедительная просьба с жалобами обращаться напрямую к пользователю, разместившему торрент файл.

Вверх