Loading...
Error

Маленькие женщины [2010 г., документальный, биография, искусство, IPTVRip]

Статистика раздачи
Размер:  702 MB   |    Зарегистрирован:  4 месяца 2 дня   |    Скачан:  0 раз

Полного источника не было: 4 дня

Сидов:  0  |  0 KB/s  ]   Личеров:  0  |  0 KB/s  ]

* - сиды/пиры с внешних источников

   
 
Автор Сообщение

ARI71 Пол:Муж

08-Авг-2016 16:31

Маленькие женщины


Год выпуска: 2010
Жанр: документальный, биография, искусство
Страна: Россия ЗАО "Новый канал", "ИвД Продакшн"
В ролях: Галина Беляева, Евдокия Германова, Валентина Рубцова, Елена Шанина
Сюжет фильма:
Фильм рассказывает о жизни и судьбах актрис с маленьким ростом.
Качество видео: IPTVRip

Продолжительность: 00:48:22
Формат: AVI
Видео: XviD, 704x528, ~1635 kbps
Аудио: русский, (оригинал), AC3 2.0, ~384.00 kbps

Код:

Общее
Полное имя : D:\Malenkie.shenshiny.2010.XviD.IPTVRip.avi
Формат : AVI
Формат/Информация : Audio Video Interleave
Размер файла : 702 Мбайт
Продолжительность : 48 м.
Общий поток : 2029 Кбит/сек
Программа кодирования : VirtualDubMod 1.5.10.2 (build 2540/release)
Библиотека кодирования : VirtualDubMod build 2540/release

Видео
Идентификатор : 0
Формат : MPEG-4 Visual
Профиль формата : Advanced Simple@L5
Параметр BVOP формата : 1
Параметр QPel формата : Нет
Параметр GMC формата : Без точки перехода
Параметр матрицы формата : Default (MPEG)
Идентификатор кодека : XVID
Идентификатор кодека/Подсказка : XviD
Продолжительность : 48 м.
Битрейт : 1635 Кбит/сек
Ширина : 704 пикселя
Высота : 528 пикселей
Соотношение сторон : 4:3
Частота кадров : 25,000 кадров/сек
Цветовое пространство : YUV
Субдискретизация насыщенности : 4:2:0
Битовая глубина : 8 бит
Тип развёртки : Прогрессивная
Метод сжатия : С потерями
Бит/(Пиксели*Кадры) : 0.176
Размер потока : 566 Мбайт (81%)
Библиотека кодирования : XviD 1.2.1 (UTC 2008-12-04)

Аудио
Идентификатор : 1
Формат : AC-3
Формат/Информация : Audio Coding 3
Расширение режима : CM (complete main)
Параметр Endianness формата : Big
Идентификатор кодека : 2000
Продолжительность : 48 м.
Вид битрейта : Постоянный
Битрейт : 384 Кбит/сек
Каналы : 2 канала
Расположение каналов : Front: L R
Частота : 48,0 КГц
Частота кадров : 31,250 кадров/сек (1536 spf)
Метод сжатия : С потерями
Задержка видео : 8 мс.
Размер потока : 133 Мбайт (19%)
Выравнивание : Разделение по промежуткам
Продолжительность промежутка : 40 мс. (1,00 видеокадр)
Время предзагрузки промежутка : 500 мс.
picpicpicpic
Для увеличения картинки щелкните мышкой по превью

Этот торрент недоступен для скачивания без регистрации, однако доступен по публичной magnet-ссылке (источники с публичных трекеров). Перед использованием ссылки прочтите, пожалуйста Пользовательское соглашение, а также как можно дольше оставайтесь на раздаче! Для того, чтобы скачать сам торрент-файл (который видит больше источников), а также для того, чтобы поблагодарить релизера, вам необходимо зарегистрироваться. Если регистрироваться лень - вы можете также попробовать скачать релиз по нашим партнерским ссылкам ниже.

[underverse.su].t68812.torrent
Трекер: Зарегистрирован   [ 08.08.2016 16:31 ]  

Статус: проверено (by makkol at 08.08.2016 23:15)
Поблагодарили: пока никто не поблагодарил...
Тип торрента: публичный - доступные источники с открытых трекеров: 
Размер: 702 MB (занимает 0,16 DVDR, для записи нужно 1 болванка DVDR/RW)
 
 
Похожие темы
Форум Тема Автор Торрент Отв. Посл. сооб.
Зарубежное кино [DVDRip, Low-Res HDRip, и т.д.] Маленькие смерти / Little Deaths (Шон Хоган, Эндрю Паркинсон, Саймон Рамли) [2011 г., ужасы, триллер, DVDRip] eXtatik
0 | 0

5 | 529

2

29.06.2012 05:54

Зарубежное кино [DVDRip, Low-Res HDRip, и т.д.] Маленькие негодяи спасают положение / The Little Rascals Save the Day (Алекс Замм / Alex Zamm) [2014 г., комедия, семейный, HDRip] Dub 90ytr90
18 | 0

0 | 1979

24

13.05.2014 17:57

Зарубежное кино [DVDRip, Low-Res HDRip, и т.д.] Маленькие дикари / Little Savages (Пауло Томборело) [2016 г., семейный, DVDRip] MVO makkol
7 | 0

0 | 429

4

25.07.2016 12:13


Яндекс.Метрика powered by Sphinx


В Н И М А Н И Е
Сайт не распространяет и не хранит электронные версии произведений, а лишь бесплатно и без коммерческой выгоды (не требуя взамен платы,
SMS и т.д.) предоставляет доступ к создаваемому пользователями каталогу ссылок на торрент-файлы, которые содержат только списки хеш-сумм.
Убедительная просьба с жалобами обращаться напрямую к пользователю, разместившему торрент файл.

Вверх