Loading...
Error

Лоло / Lolo (Жюли Дельпи) [2015 г., комедия, HDRip] MVO

Статистика раздачи
Размер:  1,46 GB   |    Зарегистрирован:  3 месяца 25 дней   |    Скачан:  18 раз
Сидов:  1  |  0 KB/s  ]   Личеров:  0  |  0 KB/s  ]

* - сиды/пиры с внешних источников

   
 
Автор Сообщение

makkol Пол:Муж

08-Авг-2016 11:12

Лоло / Lolo
«Иногда счастье зависит только от сына»


Год выпуска: 2015
Жанр: комедия
Производство: Франция [Canal+, France 2 Cinéma]
Режиссер: Жюли Дельпи
В ролях: Дани Бун, Жюли Дельпи, Венсан Лакост, Карин Вьяр, Кристоф Вандевельде, Элиза Ларниколь, Кристоф Канар, Николас Ваншыцкий
Сюжет фильма:
Фильм рассказывает о трудоголичке Виолетте из мира моды, которая неожиданно влюбляется в компьютерщика Жана-Рене. Однако 19-летний сын Виолетты, Лоло, не в восторге от их отношений. Лоло решает во что бы то ни стало избавиться от возлюбленного своей матери…

  • Мировая премьера: 3 сентября 2015


Качество видео: HDRip

Продолжительность: 01:39:19
Формат: AVI
Видео: XviD, 720x304 (2.35:1), 24.000 fps, 1707 kbps
Аудио: русский, любительский многоголосый закадровый (Parovoz Production), AC3 2.0, 48 kHz, 384 kbps

Код:

Формат                                   : AVI
Формат/Информация                        : Audio Video Interleave
Размер файла                             : 1,46 Гбайт
Продолжительность                        : 1 ч. 39 м.
Общий поток                              : 2100 Кбит/сек
Программа кодирования                    : VirtualDubMod 1.5.10.2 (build 2540/release)
Библиотека кодирования                   : VirtualDubMod build 2540/release

Видео
Идентификатор                            : 0
Формат                                   : MPEG-4 Visual
Профиль формата                          : Advanced Simple@L5
Параметр BVOP формата                    : 2
Параметр QPel формата                    : Нет
Параметр GMC формата                     : Без точки перехода
Параметр матрицы формата                 : Выборочная
Идентификатор кодека                     : XVID
Идентификатор кодека/Подсказка           : XviD
Продолжительность                        : 1 ч. 39 м.
Битрейт                                  : 1707 Кбит/сек
Ширина                                   : 720 пикселей
Высота                                   : 304 пикселя
Соотношение сторон                       : 2,35:1
Частота кадров                           : 24,000 кадра/сек
Цветовое пространство                    : YUV
Субдискретизация насыщенности            : 4:2:0
Битовая глубина                          : 8 бит
Тип развёртки                            : Прогрессивная
Метод сжатия                             : С потерями
Бит/(Пиксели*Кадры)                      : 0.325
Размер потока                            : 1,18 Гбайт (81%)
Библиотека кодирования                   : XviD 1.2.1 (UTC 2008-12-04)

Аудио
Идентификатор                            : 1
Формат                                   : AC-3
Формат/Информация                        : Audio Coding 3
Расширение режима                        : CM (complete main)
Параметр Endianness формата              : Big
Идентификатор кодека                     : 2000
Продолжительность                        : 1 ч. 39 м.
Вид битрейта                             : Постоянный
Битрейт                                  : 384 Кбит/сек
Каналы                                   : 2 канала
Расположение каналов                     : Front: L R
Частота                                  : 48,0 КГц
Частота кадров                           : 31,250 кадров/сек (1536 spf)
Метод сжатия                             : С потерями
Размер потока                            : 273 Мбайт (18%)
Выравнивание                             : Разделение по промежуткам
Продолжительность промежутка             : 42  мс. (1,00 видеокадр)
Время предзагрузки промежутка            : 500  мс.
Присутствует реклама


picpicpicpicpic
Для увеличения картинки щелкните мышкой по превью

Этот торрент недоступен для скачивания без регистрации, однако доступен по публичной magnet-ссылке (источники с публичных трекеров). Перед использованием ссылки прочтите, пожалуйста Пользовательское соглашение, а также как можно дольше оставайтесь на раздаче! Для того, чтобы скачать сам торрент-файл (который видит больше источников), а также для того, чтобы поблагодарить релизера, вам необходимо зарегистрироваться. Если регистрироваться лень - вы можете также попробовать скачать релиз по нашим партнерским ссылкам ниже.

[underverse.su].t68804.torrent
Трекер: Зарегистрирован   [ 08.08.2016 11:12 ]  

Статус: проверено (by makkol at 11.08.2016 14:33)
Поблагодарили: пока никто не поблагодарил...
Тип торрента: публичный - доступные источники с открытых трекеров: 
Размер: 1,46 GB (занимает 1/3 DVDR, для записи нужно 1 болванка DVDR/RW)
 
 
Похожие темы
Форум Тема Автор Торрент Отв. Посл. сооб.
Зарубежное кино [HDDVDRip / BDRip / WEB-DL / HDTV 1080/720р] Лоло / Lolo (Жюли Дельпи) [2015 г., комедия, BDRip 720p] MVO makkol
0 | 0

0 | 202

1

08.08.2016 11:17

Зарубежное кино [HDDVDRip / BDRip / WEB-DL / HDTV 1080/720р] Лоло / Lolo (Жюли Дельпи) [2015 г., комедия, BDRip 1080p] MVO makkol
2 | 0

0 | 268

10

08.08.2016 11:21


Яндекс.Метрика powered by Sphinx


В Н И М А Н И Е
Сайт не распространяет и не хранит электронные версии произведений, а лишь бесплатно и без коммерческой выгоды (не требуя взамен платы,
SMS и т.д.) предоставляет доступ к создаваемому пользователями каталогу ссылок на торрент-файлы, которые содержат только списки хеш-сумм.
Убедительная просьба с жалобами обращаться напрямую к пользователю, разместившему торрент файл.

Вверх