Loading...
Error

Георгий Бурков. Ироничный Дон Кихот (Андрей Луков) [2013 г., документальный, биография, искусство, SatRip]

Статистика раздачи
Размер:  610 MB   |    Зарегистрирован:  4 месяца 2 дня   |    Скачан:  2 раза

Полного источника не было: 22 дня

Сидов:  0  |  0 KB/s  ]   Личеров:  0  |  0 KB/s  ]

* - сиды/пиры с внешних источников

   
 
Автор Сообщение

ARI71 Пол:Муж

08-Авг-2016 08:41

Георгий Бурков. Ироничный Дон Кихот


Год выпуска: 2013
Жанр: документальный, биография, искусство
Страна: Россия Телекомпания "Останкино"
Режиссер: Андрей Луков
Сюжет фильма:
В его послужном списке более 70 фильмов: "Ирония судьбы, или С легким паром!", "Они сражались за Родину", "Гараж", "Печки-лавочки", "О бедном гусаре замолвите слово"...Георгий Бурков снялся в десятках фильмах, был звездой лучших московских театров. Но это лишь малая толика истинного Буркова. Каким он был на самом деле, о чем думал и мечтал в моменты триумфов и падений, можно узнать только из тетрадок, исписанных мелким неразборчивым почерком, - дневников Буркова. Лишь дневникам он доверял свои самые сокровенные мысли и грандиозные замыслы, которые, к сожалению, так и не успел осуществить. Из дневников Георгия Буркова: "Я понял крик Дон Кихота, я понял муки Гамлета и - не до конца, конечно, - понял главную суть искусства. Это крик радости или крик боли".

Гео́ргий Ива́нович Бурко́в (изначально Бу́рков) (31 мая 1933, Пермь — 19 июля 1990, Москва) — советский актёр театра и кино, кинорежиссёр, Заслуженный артист РСФСР (1980)

Качество видео: SatRip

Продолжительность: 00:52:06
Формат: AVI
Видео: XviD, 704x400, ~1500 kbps
Аудио: русский, (оригинал), MP3 2.0, ~128.00 kbps

Код:

Общее
Полное имя : D:\Георгий Бурков.Ироничный Дон Кихот.2013.SATRip.avi
Формат : AVI
Формат/Информация : Audio Video Interleave
Размер файла : 610 Мбайт
Продолжительность : 52 м.
Общий поток : 1638 Кбит/сек
Программа кодирования : VirtualDubMod 1.5.10.3 | www.virtualdub-fr.org || (build 2550/release)
Библиотека кодирования : VirtualDubMod build 2550/release

Видео
Идентификатор : 0
Формат : MPEG-4 Visual
Профиль формата : Advanced Simple@L5
Параметр BVOP формата : 2
Параметр QPel формата : Нет
Параметр GMC формата : Без точки перехода
Параметр матрицы формата : Default (MPEG)
Идентификатор кодека : XVID
Идентификатор кодека/Подсказка : XviD
Продолжительность : 52 м.
Битрейт : 1500 Кбит/сек
Ширина : 704 пикселя
Высота : 400 пикселей
Соотношение сторон : 16:9
Частота кадров : 25,000 кадров/сек
Цветовое пространство : YUV
Субдискретизация насыщенности : 4:2:0
Битовая глубина : 8 бит
Тип развёртки : Прогрессивная
Метод сжатия : С потерями
Бит/(Пиксели*Кадры) : 0.213
Размер потока : 559 Мбайт (92%)
Библиотека кодирования : XviD 1.2.1 (UTC 2008-12-04)

Аудио
Идентификатор : 1
Формат : MPEG Audio
Версия формата : Version 1
Профиль формата : Layer 3
Идентификатор кодека : 55
Идентификатор кодека/Подсказка : MP3
Продолжительность : 52 м.
Вид битрейта : Постоянный
Битрейт : 128 Кбит/сек
Каналы : 2 канала
Частота : 48,0 КГц
Метод сжатия : С потерями
Размер потока : 47,7 Мбайт (8%)
Выравнивание : Соединение по промежуткам
Продолжительность промежутка : 40 мс. (1,00 видеокадр)
Время предзагрузки промежутка : 504 мс.
Библиотека кодирования : LAME3.99r
Настройки программы : -m s -V 4 -q 2 -lowpass 17 -b 128
picpicpicpicpic
Для увеличения картинки щелкните мышкой по превью

Этот торрент недоступен для скачивания без регистрации, однако доступен по публичной magnet-ссылке (источники с публичных трекеров). Перед использованием ссылки прочтите, пожалуйста Пользовательское соглашение, а также как можно дольше оставайтесь на раздаче! Для того, чтобы скачать сам торрент-файл (который видит больше источников), а также для того, чтобы поблагодарить релизера, вам необходимо зарегистрироваться. Если регистрироваться лень - вы можете также попробовать скачать релиз по нашим партнерским ссылкам ниже.

[underverse.su].t68795.torrent
Трекер: Зарегистрирован   [ 08.08.2016 08:41 ]  

Статус: проверено (by makkol at 08.08.2016 10:12)
Поблагодарили: пока никто не поблагодарил...
Тип торрента: публичный - доступные источники с открытых трекеров: 
Размер: 610 MB (занимает 0,14 DVDR, для записи нужно 1 болванка DVDR/RW)
 
 

Яндекс.Метрика powered by Sphinx


В Н И М А Н И Е
Сайт не распространяет и не хранит электронные версии произведений, а лишь бесплатно и без коммерческой выгоды (не требуя взамен платы,
SMS и т.д.) предоставляет доступ к создаваемому пользователями каталогу ссылок на торрент-файлы, которые содержат только списки хеш-сумм.
Убедительная просьба с жалобами обращаться напрямую к пользователю, разместившему торрент файл.

Вверх