Loading...
Error

Нечеловеческие роли. Рина Зеленая (Игорь Литвинов) [2007 г., документальный, биография, искусство, TVRip]

Статистика раздачи
Размер:  311 MB   |    Зарегистрирован:  3 месяца 29 дней   |    Скачан:  1 раз

Полного источника не было: 17 дней

Сидов:  0  |  0 KB/s  ]   Личеров:  0  |  0 KB/s  ]

* - сиды/пиры с внешних источников

   
 
Автор Сообщение

ARI71 Пол:Муж

08-Авг-2016 05:16

Нечеловеческие роли. Рина Зеленая


Год выпуска: 2007
Жанр: документальный, биография, искусство
Страна: Россия «Лидер ТВ»
Режиссер: Игорь Литвинов
Сюжет фильма:
Народная артистка РСФСР Рина Зеленая играла персонажей, без которых спокойно можно было бы и обойтись, вот только без них фильмы стали бы пресными. Почему же талант Рины Зеленой оказался так мало востребован, и была ли она счастлива в своем творчестве? Екатерине Зеленой, по ее же собственным словам, необычная внешность во многом помогла поступить в театральную школу. Экзаменаторы, с трудом сдерживавшие смех, не смогли отказать абитуриентке. К своей "детской" внешности знаменитая "черепаха Тортилла" относилась с большим юмором. "Выходя на сцену, я всегда ощущала себя высокой красивой блондинкой", - шутила она и через паузу цитировала Веру Инбер: "Она была похожа на мальчика, который похож на девочку". Своим остроумием и находчивостью Екатерина Васильевна могла конкурировать с другой выдающейся актрисой - Фаиной Раневской. У них было много общего, и в первую очередь - общепризнанный талант, так и оставшийся, по большому счету, не реализованным ни в театре, ни в кино.

Ри́на Зелёная (настоящее имя Екатери́на Васи́льевна Зелёная; 25 октября [7 ноября] 1901, Ташкент, Российская империя — 1 апреля 1991, Москва, СССР) — советская актриса эстрады, театра и кино, мастер имитации детской речи, народная артистка РСФСР (1970)

Качество видео: TVRip

Продолжительность: 00:38:57
Формат: AVI
Видео: AVC (x264), 704x400, ~977 kbps
Аудио: русский, (оригинал), MP3 2.0, ~128.00 kbps

Код:

Общее
Полное имя : D:\Nechelovecheskie.roli.Rina.Zelenaja.2007.TVRip.avi
Формат : AVI
Формат/Информация : Audio Video Interleave
Размер файла : 311 Мбайт
Продолжительность : 38 м.
Общий поток : 1116 Кбит/сек

Видео
Идентификатор : 0
Формат : AVC
Формат/Информация : Advanced Video Codec
Профиль формата : High@L3
Параметр CABAC формата : Да
Параметр ReFrames формата : 2 кадра
Идентификатор кодека : H264
Продолжительность : 38 м.
Битрейт : 977 Кбит/сек
Ширина : 704 пикселя
Высота : 400 пикселей
Соотношение сторон : 16:9
Частота кадров : 25,000 кадров/сек
Цветовое пространство : YUV
Субдискретизация насыщенности : 4:2:0
Битовая глубина : 8 бит
Тип развёртки : Прогрессивная
Бит/(Пиксели*Кадры) : 0.139
Размер потока : 272 Мбайт (88%)
Библиотека кодирования : x264 core 60 r915M 14046ae
Настройки программы : cabac=1 / ref=1 / deblock=1:0:0 / analyse=0x3:0x113 / me=hex / subme=5 / brdo=0 / mixed_ref=0 / me_range=16 / chroma_me=1 / trellis=0 / 8x8dct=1 / cqm=0 / deadzone=21,11 / chroma_qp_offset=0 / threads=1 / nr=0 / decimate=1 / mbaff=0 / bframes=2 / b_pyramid=0 / b_adapt=1 / b_bias=0 / direct=1 / wpredb=1 / bime=0 / keyint=250 / keyint_min=25 / scenecut=40 / rc=crf / crf=26,0 / rceq='blurCplx^(1-qComp)' / qcomp=1,00 / qpmin=10 / qpmax=51 / qpstep=4 / ip_ratio=1,40 / pb_ratio=1,30 / aq=2:1,00

Аудио
Идентификатор : 1
Формат : MPEG Audio
Версия формата : Version 1
Профиль формата : Layer 3
Идентификатор кодека : 55
Идентификатор кодека/Подсказка : MP3
Продолжительность : 38 м.
Продолжительность оригинала : 38 м.
Вид битрейта : Постоянный
Битрейт : 128 Кбит/сек
Каналы : 2 канала
Частота : 32,0 КГц
Метод сжатия : С потерями
Размер потока : 35,7 Мбайт (11%)
Выравнивание : Разделение по промежуткам
Продолжительность промежутка : 36 мс. (0,90 видеокадр)
Библиотека кодирования : LAME3.98
picpicpicpicpic
Для увеличения картинки щелкните мышкой по превью

Этот торрент недоступен для скачивания без регистрации, однако доступен по публичной magnet-ссылке (источники с публичных трекеров). Перед использованием ссылки прочтите, пожалуйста Пользовательское соглашение, а также как можно дольше оставайтесь на раздаче! Для того, чтобы скачать сам торрент-файл (который видит больше источников), а также для того, чтобы поблагодарить релизера, вам необходимо зарегистрироваться. Если регистрироваться лень - вы можете также попробовать скачать релиз по нашим партнерским ссылкам ниже.

[underverse.su].t68764.torrent
Трекер: Зарегистрирован   [ 08.08.2016 05:16 ]  

Статус: проверено (by Паукан at 08.08.2016 07:58)
Поблагодарили: пока никто не поблагодарил...
Тип торрента: публичный - доступные источники с открытых трекеров: 
Размер: 311 MB (занимает 0,07 DVDR, для записи нужно 1 болванка DVDR/RW)
 
 

Яндекс.Метрика powered by Sphinx


В Н И М А Н И Е
Сайт не распространяет и не хранит электронные версии произведений, а лишь бесплатно и без коммерческой выгоды (не требуя взамен платы,
SMS и т.д.) предоставляет доступ к создаваемому пользователями каталогу ссылок на торрент-файлы, которые содержат только списки хеш-сумм.
Убедительная просьба с жалобами обращаться напрямую к пользователю, разместившему торрент файл.

Вверх