Loading...
Error

Бета-тест / Beta Test (Николас Гини) [2016 г., фантастика, боевик, триллер, WEB-DLRip] MVO

Статистика раздачи
Размер:  1,37 GB   |    Зарегистрирован:  3 месяца 26 дней   |    Скачан:  24 раза

Полного источника не было: 2 дня 11 часов

Сидов:  0  |  0 KB/s  ]   Личеров:  0  |  0 KB/s  ]

* - сиды/пиры с внешних источников

   
 
Автор Сообщение

makkol Пол:Муж

07-Авг-2016 23:01

Бета-тест / Beta Test


Год выпуска: 2016
Жанр: фантастика, боевик, триллер
Производство: США [Mirror Images]
Режиссер: Николас Гини
В ролях: Ману Беннетт, Лоренц Тейт, Линден Эшби, Кивон Стоувер, Брэнди Хейдрик, Сара Коутс, Юдзи Окумото, Е.М. Скотт
Сюжет фильма:
Остросюжетная научная фантастика, посвященная проблемам вооруженного насилия и культуры видеоигр в 21 веке. Геймер-чемпион Макс Трой обнаруживает, что управляет не просто компьютерным героем, а живым мужчиной, и сюжет игры по замыслу ее разработчиков должен стать зловещей реальностью.

  • Мировая премьера: 22 июля 2016


Качество видео: WEB-DLRip

Продолжительность: 01:27:53
Формат: AVI
Видео: XviD, 720x304 (2.35:1), 23.976 fps, 1839 kbps
Аудио: русский, любительский многоголосый закадровый (Parovoz Production), AC3 2.0, 48 kHz, 384 kbps

Код:

Формат                                   : AVI
Формат/Информация                        : Audio Video Interleave
Размер файла                             : 1,37 Гбайт
Продолжительность                        : 1 ч. 27 м.
Общий поток                              : 2232 Кбит/сек
Программа кодирования                    : VirtualDubMod 1.5.10.2 (build 2540/release)
Библиотека кодирования                   : VirtualDubMod build 2540/release

Видео
Идентификатор                            : 0
Формат                                   : MPEG-4 Visual
Профиль формата                          : Advanced Simple@L5
Параметр BVOP формата                    : 2
Параметр QPel формата                    : Нет
Параметр GMC формата                     : Без точки перехода
Параметр матрицы формата                 : Выборочная
Идентификатор кодека                     : XVID
Идентификатор кодека/Подсказка           : XviD
Продолжительность                        : 1 ч. 27 м.
Битрейт                                  : 1839 Кбит/сек
Ширина                                   : 720 пикселей
Высота                                   : 304 пикселя
Соотношение сторон                       : 2,35:1
Частота кадров                           : 23,976 (24000/1001) кадра/сек
Цветовое пространство                    : YUV
Субдискретизация насыщенности            : 4:2:0
Битовая глубина                          : 8 бит
Тип развёртки                            : Прогрессивная
Метод сжатия                             : С потерями
Бит/(Пиксели*Кадры)                      : 0.350
Размер потока                            : 1,13 Гбайт (82%)
Библиотека кодирования                   : XviD 1.2.1 (UTC 2008-12-04)

Аудио
Идентификатор                            : 1
Формат                                   : AC-3
Формат/Информация                        : Audio Coding 3
Расширение режима                        : CM (complete main)
Параметр Endianness формата              : Big
Идентификатор кодека                     : 2000
Продолжительность                        : 1 ч. 27 м.
Вид битрейта                             : Постоянный
Битрейт                                  : 384 Кбит/сек
Каналы                                   : 2 канала
Расположение каналов                     : Front: L R
Частота                                  : 48,0 КГц
Частота кадров                           : 31,250 кадров/сек (1536 spf)
Метод сжатия                             : С потерями
Размер потока                            : 241 Мбайт (17%)
Выравнивание                             : Разделение по промежуткам
Продолжительность промежутка             : 42  мс. (1,00 видеокадр)
Время предзагрузки промежутка            : 500  мс.
Присутствует реклама


picpicpicpicpic
Для увеличения картинки щелкните мышкой по превью

Этот торрент недоступен для скачивания без регистрации, однако доступен по публичной magnet-ссылке (источники с публичных трекеров). Перед использованием ссылки прочтите, пожалуйста Пользовательское соглашение, а также как можно дольше оставайтесь на раздаче! Для того, чтобы скачать сам торрент-файл (который видит больше источников), а также для того, чтобы поблагодарить релизера, вам необходимо зарегистрироваться. Если регистрироваться лень - вы можете также попробовать скачать релиз по нашим партнерским ссылкам ниже.

[underverse.su].t68762.torrent
Трекер: Зарегистрирован   [ 07.08.2016 23:01 ]  

Статус: T временная (by Паукан at 08.08.2016 07:58)
Поблагодарили: пока никто не поблагодарил...
Тип торрента: публичный - доступные источники с открытых трекеров: 
Размер: 1,37 GB (занимает 0,31 DVDR, для записи нужно 1 болванка DVDR/RW)
 
 
Похожие темы
Форум Тема Автор Торрент Отв. Посл. сооб.
T Зарубежное кино [HDDVDRip / BDRip / WEB-DL / HDTV 1080/720р] Бета-тест / Beta Test ( Николас Гини) [2016 г., фантастика, боевик, триллер, WEB-DL 1080p] MVO makkol
88 | 2

0 | 371

18

07.08.2016 23:15


Яндекс.Метрика powered by Sphinx


В Н И М А Н И Е
Сайт не распространяет и не хранит электронные версии произведений, а лишь бесплатно и без коммерческой выгоды (не требуя взамен платы,
SMS и т.д.) предоставляет доступ к создаваемому пользователями каталогу ссылок на торрент-файлы, которые содержат только списки хеш-сумм.
Убедительная просьба с жалобами обращаться напрямую к пользователю, разместившему торрент файл.

Вверх