Loading...
Error

Неизвестные викинги. Под парусами драккара / The Vikings Uncovered (1-2 серии из 2) / (Харвей Лиллей) [2016 г., документальный, история, археология, исследования, SatRip] Dub

Статистика раздачи
Размер:  1,51 GB   |    Зарегистрирован:  3 месяца 23 дня   |    Скачан:  2 раза

Полного источника не было: 23 дня

Сидов:  0  |  0 KB/s  ]   Личеров:  0  |  0 KB/s  ]

* - сиды/пиры с внешних источников

   
 
Автор Сообщение

ARI71 Пол:Муж

07-Авг-2016 16:48

Неизвестные викинги. Под парусами драккара / The Vikings Uncovered (1-2 серии из 2)


Год выпуска: 2016
Жанр: документальный, история, археология, исследования
Страна: Великобритания BBC, History Production London
Режиссер: Харвей Лиллей
Сюжет фильма:
Викинги - скандинавские воины, которые грабили и мародёрствовали более 1000 лет назад. Их жестокость вошла в легенды. Они оставили следы насилия по всей Европе. Веками корабли викингов терроризировали людей от Ирландии до Каспийского моря. Но викинги были не только разбойниками. Они были торговцами и первооткрывателями, заплывавшими дальше чем любой европеец до них. Археологи планируют раскрыть их секреты. Как они овладели обработкой металла, как строили корабли, способные выдерживать океанские штормы? И главная загадка - как далеко они заплывали? Правда ли, что они открыли Северную Америку задолго до путешествий Колумба? Сегодня новые технологии помогают археологам пройти по их следам. Спутники, в 600 км. над Землёй, открывают ранее недоступное человеческому глазу. Но помогут ли технологии найти главную цель - поселения викингов в Северной Америке. Это заставило бы переписать учебники истории.
Качество видео: SatRip

Продолжительность: 2 x ~ 00:54:10
Формат: AVI
Видео: XviD, 720x400, ~1796 kbps
Аудио: русский, (дублированный), AC3 2.0, ~128.00 kbps

Код:

Общее
Полное имя : D:\BBC_The Vikings Uncovered\part_01.avi
Формат : AVI
Формат/Информация : Audio Video Interleave
Размер файла : 748 Мбайт
Продолжительность : 54 м.
Общий поток : 1931 Кбит/сек
Программа кодирования : TMPGEnc Video Mastering Works 6 Trial with Movie Plug-in Version. 6.1.5.26
Библиотека кодирования : TMPGEnc Video Mastering Works 6 Trial with Movie Plug-in Version. 6.1.5.26

Видео
Идентификатор : 0
Формат : MPEG-4 Visual
Профиль формата : Advanced Simple@L5
Параметр BVOP формата : 2
Параметр QPel формата : Нет
Параметр GMC формата : Без точки перехода
Параметр матрицы формата : Default (H.263)
Режим смешивания : Сжатый битовый поток
Идентификатор кодека : XVID
Идентификатор кодека/Подсказка : XviD
Продолжительность : 54 м.
Битрейт : 1796 Кбит/сек
Ширина : 720 пикселей
Высота : 400 пикселей
Соотношение сторон : 16:9
Частота кадров : 25,000 кадров/сек
Цветовое пространство : YUV
Субдискретизация насыщенности : 4:2:0
Битовая глубина : 8 бит
Тип развёртки : Прогрессивная
Метод сжатия : С потерями
Бит/(Пиксели*Кадры) : 0.249
Размер потока : 696 Мбайт (93%)
Библиотека кодирования : XviD 73

Аудио
Идентификатор : 1
Формат : AC-3
Формат/Информация : Audio Coding 3
Расширение режима : CM (complete main)
Параметр Endianness формата : Big
Идентификатор кодека : 2000
Продолжительность : 54 м.
Вид битрейта : Постоянный
Битрейт : 128 Кбит/сек
Каналы : 2 канала
Расположение каналов : Front: L R
Частота : 48,0 КГц
Частота кадров : 31,250 кадров/сек (1536 spf)
Метод сжатия : С потерями
Размер потока : 49,6 Мбайт (7%)
Выравнивание : Соединение по промежуткам
Продолжительность промежутка : 333 мс. (8,34 видеокадров)
Документальный дубляж "Видеофильм ТВ":
Голос рассказчика - полный дубляж
Интервью - слышна оригинальная речь
Драккар - так сегодня принято называть деревянный корабль викингов, длинный и узкий, с высоко поднятыми носом и кормой. Отсюда другое название подобного судна - "длинный корабль". Размеры драккаров колебались от 35 до 60 футов (от 10 до 18,5 метров).
picpicpicpic
pic
Для увеличения картинки щелкните мышкой по превью

Этот торрент недоступен для скачивания без регистрации, однако доступен по публичной magnet-ссылке (источники с публичных трекеров). Перед использованием ссылки прочтите, пожалуйста Пользовательское соглашение, а также как можно дольше оставайтесь на раздаче! Для того, чтобы скачать сам торрент-файл (который видит больше источников), а также для того, чтобы поблагодарить релизера, вам необходимо зарегистрироваться. Если регистрироваться лень - вы можете также попробовать скачать релиз по нашим партнерским ссылкам ниже.

[underverse.su].t69054.torrent
Трекер: Зарегистрирован   [ 14.08.2016 05:37 ]  

Статус: проверено (by makkol at 15.08.2016 21:45)
Поблагодарили: 1 человек
Тип торрента: публичный - доступные источники с открытых трекеров: 
Размер: 1,51 GB (занимает 0,34 DVDR, для записи нужно 1 болванка DVDR/RW)
 
 
Похожие темы
Форум Тема Автор Торрент Отв. Посл. сооб.
Зарубежное кино [DVDRip, Low-Res HDRip, и т.д.] Неизвестный / Unknown (Жауме Серра) [2011 г., триллер, драма, детектив, DVDRip] eXtatik
0 | 0

3 | 1047

12

27.12.2012 20:34

Зарубежное кино [DVDRip, Low-Res HDRip, и т.д.] Неизвестный / Unknown (Жауме Серра ) [2011 г., триллер, драма, детектив , HDRip] P.O.C.O.X.A
0 | 0

2 | 896

0

01.02.2012 12:25

Зарубежное кино [DVDRip, Low-Res HDRip, и т.д.] Неизвестный / Unknown (Жауме Серра) [2011 г., триллер, драма, детектив, BDRip-AVC] Dub + Original 90ytr90
1 | 0

0 | 535

23

23.12.2012 16:49

Зарубежные сериалы Неизвестные (Неизвестные лица) Сезон 1 (серии 1-13) / Persons Unknown (Майкл Раймер, Джонатан Фрейкс, Тим Мэтисон ) [2010 г., драма, триллер, WEB-DLRip] maddd
0 | 0

1 | 2379

0

02.03.2011 19:29

Научно-популярные фильмы Неизвестные самолёты (Андрей Кулясов) [2012 г., документальный, научно-популярный, DVDRip-AVC] Паукан
0 | 0

0 | 871

27

03.06.2013 08:08

Христианство. Вера и религия Неизвестный сербский монах - Православная Сербия, которую мы потеряли... (Альбом акварелей) [2005, Православие, DjVu] SRB 8ad_R060d
3 | 0

0 | 516

6

07.03.2014 14:07



Последний раз редактировалось: ARI71 (14.08.2016 05:47), всего редактировалось 3 раз(а)

ARI71 Пол:Муж

07-Авг-2016 16:48

Добавлена 2-я последняя серия данного релиза. Обновите торрент-файл! Приятного всем просмотра!


Яндекс.Метрика powered by Sphinx


В Н И М А Н И Е
Сайт не распространяет и не хранит электронные версии произведений, а лишь бесплатно и без коммерческой выгоды (не требуя взамен платы,
SMS и т.д.) предоставляет доступ к создаваемому пользователями каталогу ссылок на торрент-файлы, которые содержат только списки хеш-сумм.
Убедительная просьба с жалобами обращаться напрямую к пользователю, разместившему торрент файл.

Вверх