Loading...
Error

Секретная жизнь жемчужин / The Secret Life of Pearls (Ник Робинсон) [2015 г., документальный, научно-познавательный, природа, HDTV 1080i] Dub

Статистика раздачи
Размер:  2,79 GB   |    Зарегистрирован:  3 месяца 26 дней   |    Скачан:  4 раза

Полного источника не было: 12 дней

Сидов:  0  |  0 KB/s  ]   Личеров:  0  |  0 KB/s  ]

* - сиды/пиры с внешних источников

   
 
Автор Сообщение

ARI71 Пол:Муж

07-Авг-2016 16:00

Секретная жизнь жемчужин / The Secret Life of Pearls


Год выпуска: 2015
Жанр: документальный, научно-познавательный, природа
Страна: США National Geographic, Eye Spy Productions Pty Ltd
Перевод: русский, (дублированный)
Режиссер: Ник Робинсон
Сюжет фильма:
Австралийский жемчуг Южных морей славится своей самой большой ценностью. Дайверы готовы рискнуть своей жизнью ради находки в 100 млн. долларов.
Качество видео: HDTV 1080i

Продолжительность: 00:43:02
Формат: MPEG-TS
Видео: AVC, 1920x1080 (16:9), 25 fps, (High@L4) ~8423 kbps avg, 0.162 bit/pixel
Аудио #1: Русский, 48 kHz, MPEG Layer 2, 2 ch, ~192.00 kbps avg
Аудио #2: Русский, 48 kHz, MPEG Layer 2, 2 ch, ~192.00 kbps avg

Код:

Общее
Идентификатор : 1 (0x1)
Полное имя : D:\Секретная жизнь жемчужин.ts
Формат : MPEG-TS
Размер файла : 2,79 Гбайт
Продолжительность : 43 м.
Режим общего битрейта : Переменный
Общий поток : 9268 Кбит/сек

Видео
Идентификатор : 70 (0x46)
Идентификатор меню : 1 (0x1)
Формат : AVC
Формат/Информация : Advanced Video Codec
Профиль формата : High@L4
Параметр CABAC формата : Да
Параметр ReFrames формата : 4 кадра
Идентификатор кодека : 27
Продолжительность : 43 м.
Битрейт : 8423 Кбит/сек
Ширина : 1920 пикселей
Высота : 1080 пикселей
Соотношение сторон : 16:9
Частота кадров : 25,000 кадров/сек
Цветовое пространство : YUV
Субдискретизация насыщенности : 4:2:0
Битовая глубина : 8 бит
Тип развёртки : Чересстрочная
Метод сохранения типа развёртки : Раздельные поля
Порядок развёртки : Верхнее поле первое
Бит/(Пиксели*Кадры) : 0.162
Размер потока : 2,53 Гбайт (91%)
Цветовой диапазон : Limited
Основные цвета : BT.709
Характеристики трансфера : BT.709
Коэффициенты матрицы : BT.709

Аудио #1
Идентификатор : 68 (0x44)
Идентификатор меню : 1 (0x1)
Формат : MPEG Audio
Версия формата : Version 1
Профиль формата : Layer 2
Идентификатор кодека : 3
Продолжительность : 43 м.
Вид битрейта : Постоянный
Битрейт : 192 Кбит/сек
Каналы : 2 канала
Частота : 48,0 КГц
Метод сжатия : С потерями
Размер потока : 59,1 Мбайт (2%)
Язык : Russian

Аудио #2
Идентификатор : 69 (0x45)
Идентификатор меню : 1 (0x1)
Формат : MPEG Audio
Версия формата : Version 1
Профиль формата : Layer 2
Идентификатор кодека : 3
Продолжительность : 43 м.
Вид битрейта : Постоянный
Битрейт : 192 Кбит/сек
Каналы : 2 канала
Частота : 48,0 КГц
Метод сжатия : С потерями
Размер потока : 59,1 Мбайт (2%)
Язык : English
В программе "MediaInfo" в тех. данных указано, что вторая аудио дорожка звучит на английском языке, но на самом деле обе аудио дорожки звучат на русском языке!

Перевод: Дублированный, студия "Велес"
Текст читает: Светлана Шейченко.
picpicpicpicpic
Для увеличения картинки щелкните мышкой по превью

Этот торрент недоступен для скачивания без регистрации, однако доступен по публичной magnet-ссылке (источники с публичных трекеров). Перед использованием ссылки прочтите, пожалуйста Пользовательское соглашение, а также как можно дольше оставайтесь на раздаче! Для того, чтобы скачать сам торрент-файл (который видит больше источников), а также для того, чтобы поблагодарить релизера, вам необходимо зарегистрироваться. Если регистрироваться лень - вы можете также попробовать скачать релиз по нашим партнерским ссылкам ниже.

[underverse.su].t68758.torrent
Трекер: Зарегистрирован   [ 07.08.2016 16:00 ]  

Статус: проверено (by makkol at 07.08.2016 22:36)
Поблагодарили: пока никто не поблагодарил...
Тип торрента: публичный - доступные источники с открытых трекеров: 
Размер: 2,79 GB (занимает 0,64 DVDR, для записи нужно 1 болванка DVDR/RW)
 
 
Похожие темы
Форум Тема Автор Торрент Отв. Посл. сооб.
Зарубежные мультфильмы Секретная служба Санта-Клауса / Arthur Christmas (Сара Смит, Бэрри Кук) [2011 г., мультфильм, драма, комедия, семейный, HDRip] Dub [лицензия] RG NewCinema
1 | 0

1 | 1080

36

27.11.2012 12:45

Зарубежные мультфильмы Секретная служба Санта-Клауса / Arthur Christmas (Сара Смит, Бэрри Кук) [2011 г., мультфильм, драма, комедия, семейный, BDRip-AVC] Dub (Rus) + Dub (Ukr) + Original garry
5 | 0

0 | 981

30

22.11.2012 09:41

National Geographic Секретная жизнь жемчужин / The Secret Life of Pearls (Ник Робинсон) [2015 г., документальный, научно-познавательный, природа, HDTVRip-AVC] VO (Велес) ARI71
4 | 0

1 | 223

0

20.11.2016 08:21

Релизы Секретная экспедиция 8: Смитсоновский замок Коллекционное издание / Hidden Expedition 8: Smithsonian Castle Collectors Edition [2014 г. Quest, Hidden Object] RUS [P] Flatron
0 | 0

2 | 587

9

05.02.2015 22:25


Яндекс.Метрика powered by Sphinx


В Н И М А Н И Е
Сайт не распространяет и не хранит электронные версии произведений, а лишь бесплатно и без коммерческой выгоды (не требуя взамен платы,
SMS и т.д.) предоставляет доступ к создаваемому пользователями каталогу ссылок на торрент-файлы, которые содержат только списки хеш-сумм.
Убедительная просьба с жалобами обращаться напрямую к пользователю, разместившему торрент файл.

Вверх