Loading...
Error

Все тенали бороговы... / Tout spliques etaient les Borogoves (Дэниэл Ле Комте) [1970 г., фантастика, семейный, DVDRip-AVC] VO + Original

Статистика раздачи
Размер:  1,14 GB   |    Зарегистрирован:  3 месяца 29 дней   |    Скачан:  1 раз

Полного источника не было: 5 часов

Сидов:  0  |  0 KB/s  ]   Личеров:  0  |  0 KB/s  ]

* - сиды/пиры с внешних источников

   
 
Автор Сообщение

makkol Пол:Муж

07-Авг-2016 13:58

Все тенали бороговы... / Tout spliques étaient les Borogoves


Год выпуска: 1970
Жанр: фантастика, семейный
Страна: Франция
Режиссер: Дэниэл Ле Комте
В ролях: Малка Рибовска, Вильям Сабатье, Эрик Дамэ, Лоранс Деби, Мадлен Озерэ, Жан-Роже Коссимон, Пьер Дидье, Мюзе Лальбре, Жан Руперт
Сюжет фильма:
Родители Филипа и Сильвии - владельцы гостиницы в горах. Во время последнего пребывания в Париже дети вместе с отцом посетили планетарий, где их заинтересовал рассказ о звездах. Однажды по дороге из школы Филипп обнаруживает странный металлический контейнер в снегу и приносит находку домой...

Фильм снят по рассказу "Все тенали бороговы...", который написали американские писатели-фантасты Генри Каттнер и Кэтрин Мур. Впервые он был опубликован в 1943 году. На сегодня это произведение переведено на многие языки мира, в том числе и на русский язык. В 2007 году по мотивам этого рассказа снят фильм "Последняя Мимзи Вселенной".

  • Мировая премьера: 6 сентября 1970


Качество видео: DVDRip-AVC

Продолжительность: 01:15:26
Формат: MKV
Видео: MPEG-4 AVC, 720x556 (1.295:1), 25.000 fps, 1782 kbps
Аудио #1: русский, любительский одноголосый закадровый (Семен Ващенко), AC3 2.0, 48 kHz, 192 kbps
Аудио #2: французский, оригинал, AC3 2.0, 48 kHz, 192 kbps
Субтитры: русские (Северный), английские вшитые отключаемые

Код:

Формат                                   : Matroska
Версия формата                           : Version 4 / Version 2
Размер файла                             : 1,14 Гбайт
Продолжительность                        : 1 ч. 15 м.
Общий поток                              : 2169 Кбит/сек
Дата кодирования                         : UTC 2016-08-07 12:28:42
Программа кодирования                    : mkvmerge v7.9.0 ('Birds') 64bit
Библиотека кодирования                   : libebml v1.3.1 + libmatroska v1.4.2
DURATION                                 : 01:15:22.760000000
NUMBER_OF_FRAMES                         : 1326
NUMBER_OF_BYTES                          : 32708
_STATISTICS_WRITING_APP                  : mkvmerge v8.7.0 ('All of the above') 64bit
_STATISTICS_WRITING_DATE_UTC             : 2016-08-04 17:06:20
_STATISTICS_TAGS                         : BPS DURATION NUMBER_OF_FRAMES NUMBER_OF_BYTES

Видео
Идентификатор                            : 1
Формат                                   : AVC
Формат/Информация                        : Advanced Video Codec
Профиль формата                          : High@L4.1
Параметр CABAC формата                   : Да
Параметр ReFrames формата                : 2 кадра
Идентификатор кодека                     : V_MPEG4/ISO/AVC
Продолжительность                        : 1 ч. 15 м.
Битрейт                                  : 1782 Кбит/сек
Ширина                                   : 720 пикселей
Высота                                   : 556 пикселей
Соотношение сторон                       : 1,295
Режим частоты кадров                     : Постоянный
Частота кадров                           : 25,000 кадров/сек
Цветовое пространство                    : YUV
Субдискретизация насыщенности            : 4:2:0
Битовая глубина                          : 8 бит
Тип развёртки                            : Прогрессивная
Бит/(Пиксели*Кадры)                      : 0.178
Размер потока                            : 940 Мбайт (80%)
Библиотека кодирования                   : x264 core 142
Настройки программы                      : cabac=1 / ref=1 / deblock=1:-1:-1 / analyse=0x3:0 / me=hex / subme=5 / psy=0 / mixed_ref=0 / me_range=16 / chroma_me=1 / trellis=0 / 8x8dct=1 / cqm=0 / deadzone=21,11 / fast_pskip=1 / chroma_qp_offset=0 / threads=4 / lookahead_threads=1 / sliced_threads=0 / nr=0 / decimate=1 / interlaced=0 / bluray_compat=0 / constrained_intra=0 / bframes=2 / b_pyramid=0 / b_adapt=1 / b_bias=0 / direct=1 / weightb=1 / open_gop=0 / weightp=0 / keyint=24 / keyint_min=13 / scenecut=40 / intra_refresh=0 / rc=2pass / mbtree=0 / bitrate=1782 / ratetol=1.0 / qcomp=0.60 / qpmin=0 / qpmax=69 / qpstep=4 / cplxblur=20.0 / qblur=0.5 / ip_ratio=1.40 / pb_ratio=1.30 / aq=1:1.00
Default                                  : Да
Forced                                   : Нет
Цветовой диапазон                        : Limited
Основные цвета                           : BT.601 NTSC
Характеристики трансфера                 : BT.709
Коэффициенты матрицы                     : BT.601

Аудио #1
Идентификатор                            : 2
Формат                                   : AC-3
Формат/Информация                        : Audio Coding 3
Расширение режима                        : CM (complete main)
Параметр Endianness формата              : Big
Идентификатор кодека                     : A_AC3
Продолжительность                        : 1 ч. 15 м.
Вид битрейта                             : Постоянный
Битрейт                                  : 192 Кбит/сек
Каналы                                   : 2 канала
Расположение каналов                     : Front: L R
Частота                                  : 48,0 КГц
Метод сжатия                             : С потерями
Размер потока                            : 104 Мбайт (9%)
Язык                                     : Russian
Default                                  : Да
Forced                                   : Нет

Аудио #2
Идентификатор                            : 3
Формат                                   : AC-3
Формат/Информация                        : Audio Coding 3
Расширение режима                        : CM (complete main)
Параметр Endianness формата              : Big
Идентификатор кодека                     : A_AC3
Продолжительность                        : 1 ч. 15 м.
Вид битрейта                             : Постоянный
Битрейт                                  : 192 Кбит/сек
Каналы                                   : 2 канала
Расположение каналов                     : Front: L R
Частота                                  : 48,0 КГц
Метод сжатия                             : С потерями
Размер потока                            : 104 Мбайт (9%)
Язык                                     : French
Default                                  : Нет
Forced                                   : Нет

Текст #1
Идентификатор                            : 4
Формат                                   : UTF-8
Идентификатор кодека                     : S_TEXT/UTF8
Идентификатор кодека/Информация          : UTF-8 Plain Text
Язык                                     : Russian
Default                                  : Да
Forced                                   : Нет

Текст #2
Идентификатор                            : 5
Формат                                   : UTF-8
Идентификатор кодека                     : S_TEXT/UTF8
Идентификатор кодека/Информация          : UTF-8 Plain Text
Язык                                     : English
Default                                  : Нет
Forced                                   : Нет

Меню
00:00:00.000                             : en:(01)00:00:00:000
00:08:47.400                             : en:(02)00:08:47:400
00:16:26.000                             : en:(03)00:16:26:000
00:30:52.760                             : en:(04)00:30:52:760
00:40:50.560                             : en:(05)00:40:50:560
00:50:08.240                             : en:(06)00:50:08:240
01:03:53.760                             : en:(07)01:03:53:760
01:15:26.040                             : en:(08)01:15:26:040
Релиз:

picpicpicpicpic
Для увеличения картинки щелкните мышкой по превью

Этот торрент недоступен для скачивания без регистрации, однако доступен по публичной magnet-ссылке (источники с публичных трекеров). Перед использованием ссылки прочтите, пожалуйста Пользовательское соглашение, а также как можно дольше оставайтесь на раздаче! Для того, чтобы скачать сам торрент-файл (который видит больше источников), а также для того, чтобы поблагодарить релизера, вам необходимо зарегистрироваться. Если регистрироваться лень - вы можете также попробовать скачать релиз по нашим партнерским ссылкам ниже.

[underverse.su].t68706.torrent
Трекер: Зарегистрирован   [ 07.08.2016 13:58 ]  

Статус: проверено (by makkol at 08.08.2016 23:43)
Поблагодарили: пока никто не поблагодарил...
Тип торрента: публичный - доступные источники с открытых трекеров: 
Размер: 1,14 GB (занимает 0,26 DVDR, для записи нужно 1 болванка DVDR/RW)
 
 

Яндекс.Метрика powered by Sphinx


В Н И М А Н И Е
Сайт не распространяет и не хранит электронные версии произведений, а лишь бесплатно и без коммерческой выгоды (не требуя взамен платы,
SMS и т.д.) предоставляет доступ к создаваемому пользователями каталогу ссылок на торрент-файлы, которые содержат только списки хеш-сумм.
Убедительная просьба с жалобами обращаться напрямую к пользователю, разместившему торрент файл.

Вверх