Loading...
Error

Любимые актеры. Наталья Гундарева (Андрей Зенин) [2013 г., документальный, биография, искусство, SatRip]

Статистика раздачи
Размер:  303 MB   |    Зарегистрирован:  4 месяца 1 день   |    Скачан:  1 раз

Полного источника не было: 16 дней

Сидов:  0  |  0 KB/s  ]   Личеров:  0  |  0 KB/s  ]

* - сиды/пиры с внешних источников

   
 
Автор Сообщение

ARI71 Пол:Муж

07-Авг-2016 08:30

Любимые актеры. Наталья Гундарева


Год выпуска: 2013
Жанр: документальный, биография, искусство
Страна: Россия ТК "Мир"
Режиссер: Андрей Зенин
Сюжет фильма:
«Любимые актеры» — это фильм-портрет. Авторский взгляд на судьбу известного артиста. Ведущий программы — «коллекционер» актерских баек и историй. Нам интересен не только творческий путь актера, но и его личная жизнь. Его судьба непредсказуема. Взлеты, падения, надежды, разочарования. Нередко путь к славе оборачивается дорогой к забвению. Кроме главного героя в программе присутствуют его друзья, родственники, коллеги.

Ната́лья Гео́ргиевна Гу́ндарева (28 августа 1948, Москва — 15 мая 2005, Москва) — советская и российская актриса театра и кино. Одна из самых популярных актрис советского кинематографа 1970—1990 годов.

Качество видео: SatRip

Продолжительность: 00:26:02
Формат: AVI
Видео: XviD, 640x480, ~1487 kbps
Аудио: русский, (оригинал), MP3 2.0, ~128.00 kbps

Код:

Общее
Полное имя : D:\Ljubimye.aktery.Gundareva.avi
Формат : AVI
Формат/Информация : Audio Video Interleave
Размер файла : 303 Мбайт
Продолжительность : 26 м.
Общий поток : 1625 Кбит/сек
Программа кодирования : VirtualDubMod 1.5.10.2 (build 2540/release)
Библиотека кодирования : VirtualDubMod build 2540/release

Видео
Идентификатор : 0
Формат : MPEG-4 Visual
Профиль формата : Advanced Simple@L5
Параметр BVOP формата : 2
Параметр QPel формата : Нет
Параметр GMC формата : Без точки перехода
Параметр матрицы формата : Default (MPEG)
Идентификатор кодека : XVID
Идентификатор кодека/Подсказка : XviD
Продолжительность : 26 м.
Битрейт : 1487 Кбит/сек
Ширина : 640 пикселей
Высота : 480 пикселей
Соотношение сторон : 4:3
Частота кадров : 25,000 кадров/сек
Цветовое пространство : YUV
Субдискретизация насыщенности : 4:2:0
Битовая глубина : 8 бит
Тип развёртки : Прогрессивная
Метод сжатия : С потерями
Бит/(Пиксели*Кадры) : 0.194
Размер потока : 277 Мбайт (92%)
Библиотека кодирования : XviD 1.2.1 (UTC 2008-12-04)

Аудио
Идентификатор : 1
Формат : MPEG Audio
Версия формата : Version 1
Профиль формата : Layer 3
Идентификатор кодека : 55
Идентификатор кодека/Подсказка : MP3
Продолжительность : 26 м.
Вид битрейта : Постоянный
Битрейт : 128 Кбит/сек
Каналы : 2 канала
Частота : 48,0 КГц
Метод сжатия : С потерями
Размер потока : 23,8 Мбайт (8%)
Выравнивание : Соединение по промежуткам
Продолжительность промежутка : 40 мс. (1,00 видеокадр)
Время предзагрузки промежутка : 504 мс.
Библиотека кодирования : LAME3.99r
Настройки программы : -m s -V 4 -q 2 -lowpass 17 -b 128
picpicpicpicpic
Для увеличения картинки щелкните мышкой по превью

Этот торрент недоступен для скачивания без регистрации, однако доступен по публичной magnet-ссылке (источники с публичных трекеров). Перед использованием ссылки прочтите, пожалуйста Пользовательское соглашение, а также как можно дольше оставайтесь на раздаче! Для того, чтобы скачать сам торрент-файл (который видит больше источников), а также для того, чтобы поблагодарить релизера, вам необходимо зарегистрироваться. Если регистрироваться лень - вы можете также попробовать скачать релиз по нашим партнерским ссылкам ниже.

[underverse.su].t68694.torrent
Трекер: Зарегистрирован   [ 07.08.2016 08:30 ]  

Статус: проверено (by makkol at 07.08.2016 08:59)
Поблагодарили: пока никто не поблагодарил...
Тип торрента: публичный - доступные источники с открытых трекеров: 
Размер: 303 MB (занимает 0,07 DVDR, для записи нужно 1 болванка DVDR/RW)
 
 
Похожие темы
Форум Тема Автор Торрент Отв. Посл. сооб.
Личности Любимые актеры. Татьяна Пельтцер. [2013 г., документальный, биография, TVRip] матроскин
0 | 0

1 | 1024

8

20.05.2013 13:55

Личности Любимые актеры. Георгий Бурков. [2013 г., документальный, биография, TVRip] матроскин
0 | 0

1 | 633

3

05.06.2013 17:11

Личности Любимые актеры - Сергей Никоненко [2013 г., документальный, биография, TVRip] матроскин
0 | 0

1 | 639

2

23.06.2013 10:01


Яндекс.Метрика powered by Sphinx


В Н И М А Н И Е
Сайт не распространяет и не хранит электронные версии произведений, а лишь бесплатно и без коммерческой выгоды (не требуя взамен платы,
SMS и т.д.) предоставляет доступ к создаваемому пользователями каталогу ссылок на торрент-файлы, которые содержат только списки хеш-сумм.
Убедительная просьба с жалобами обращаться напрямую к пользователю, разместившему торрент файл.

Вверх